<?xml version="1.0" standalone="no"?>
<!DOCTYPE svg PUBLIC "-//W3C//DTD SVG 1.1//EN" "http://www.w3.org/Graphics/SVG/1.1/DTD/svg11.dtd" >
<svg xmlns="http://www.w3.org/2000/svg">
<metadata></metadata>
<defs>
<font id="bariollight" horiz-adv-x="948" >
<font-face units-per-em="2048" ascent="1612" descent="-436" />
<missing-glyph horiz-adv-x="512" />
<glyph horiz-adv-x="0" />
<glyph unicode="&#xd;" horiz-adv-x="512" />
<glyph horiz-adv-x="0" />
<glyph horiz-adv-x="0" />
<glyph unicode=" "  horiz-adv-x="512" />
<glyph unicode="&#x09;" horiz-adv-x="512" />
<glyph unicode="&#xa0;" horiz-adv-x="512" />
<glyph unicode="!" horiz-adv-x="288" d="M96 31q0 49 47 49t47 -49q0 -47 -47 -47t-47 47zM106 1360q0 18 10.5 26.5t26.5 8.5t26.5 -8.5t10.5 -26.5l-16 -1088q-1 -18 -21 -18t-20 18z" />
<glyph unicode="&#x22;" horiz-adv-x="604" d="M170 1360q0 35 35 35q16 0 26.5 -8.5t8.5 -26.5l-17 -350q0 -16 -18 -17q-20 0 -21 17zM365 1360q-2 18 8 26.5t26 8.5q35 0 35 -35l-14 -350q0 -16 -21 -17q-18 0 -18 17z" />
<glyph unicode="#" horiz-adv-x="1062" d="M92 483q0 27 27 27h164l51 324h-160q-27 0 -27 26q0 27 27 27h168l70 426q4 23 26 22q27 0 27 -26q0 -4 -1 -11.5t-3 -17.5l-64 -393h340l70 426q4 23 27 22q27 0 26 -26q0 -4 -1 -11.5t-3 -17.5l-63 -393h151q27 0 27 -27t-27 -26h-160l-51 -324h156q27 0 26 -27 q0 -27 -26 -26h-164l-72 -451q-4 -23 -26 -22q-27 0 -27 26q0 4 1 11.5t3 17.5l66 418h-340l-72 -451q-4 -23 -27 -22q-27 0 -26 26q0 4 1 11.5t3 17.5l65 418h-155q-27 0 -27 26zM338 510h340l51 324h-340z" />
<glyph unicode="$" horiz-adv-x="1095" d="M59 238q0 12 9.5 21t21.5 9q16 0 27 -16q59 -92 159.5 -157.5t255.5 -65.5q201 0 306.5 78.5t105.5 244.5q0 84 -35 139.5t-92 94.5t-131 66.5t-149.5 52t-149.5 52t-131 69.5t-92 102.5t-35 148.5q0 63 22.5 120.5t69.5 101.5t120 73t173 33v178q0 12 9 21.5t22 9.5 q12 0 21 -9.5t9 -21.5v-178q133 -4 232.5 -56.5t169.5 -144.5q6 -10 6 -18q0 -12 -9 -21.5t-22 -9.5q-16 0 -24 12q-27 35 -59.5 68t-78 59.5t-104.5 42t-137 15.5q-96 0 -164 -22.5t-110 -60.5t-61 -87t-19 -105q0 -102 60 -160.5t150.5 -98.5t197 -71.5t196.5 -78.5 t150.5 -120t60.5 -196q0 -176 -112 -272t-323 -107v-176q0 -12 -9 -21t-21 -9t-21.5 9t-9.5 21v174q-84 2 -152.5 22.5t-124 54.5t-98.5 78t-73 93q-6 8 -7 19z" />
<glyph unicode="%" horiz-adv-x="1527" d="M102 1073q0 70 14.5 131.5t48.5 106.5t88 70.5t132 25.5t132 -25.5t88 -70.5t48.5 -106.5t14.5 -131.5t-14.5 -131t-48.5 -106t-88 -71t-132 -26t-132 26t-88 71t-48.5 106.5t-14.5 130.5zM156 1073q0 -59 11 -110.5t37.5 -90t70.5 -60t110 -21.5t110 21.5t70.5 60 t37.5 90t11 110.5t-11 110.5t-37.5 90.5t-70.5 60.5t-110 21.5t-110 -21.5t-70.5 -60.5t-37.5 -90t-11 -111zM403 10q0 6 5 15l684 1353q6 16 24 17q27 0 27 -27q0 -6 -4 -14l-684 -1354q-4 -8 -11.5 -12t-13.5 -4q-27 0 -27 26zM860 307q0 70 14.5 131.5t48 106.5t88 70.5 t132.5 25.5t132 -25.5t88 -70.5t48 -106.5t14 -131.5t-14 -131t-48 -106t-88 -71t-132 -26t-132.5 26t-88 71t-48 106.5t-14.5 130.5zM913 307q0 -59 11.5 -110.5t38 -90t70.5 -60t110 -21.5t109.5 21.5t70.5 60t38 90t11 110.5t-11 110.5t-38 90.5t-71 60.5t-109 21.5 q-66 0 -110 -21.5t-70.5 -60.5t-38 -90t-11.5 -111z" />
<glyph unicode="&#x26;" horiz-adv-x="1245" d="M90 348q0 63 18.5 117.5t52.5 102.5t79 91t100 84q-39 66 -77 163.5t-38 209.5q0 59 17.5 112.5t51.5 93.5t85 62.5t117 22.5q109 0 181.5 -67.5t72.5 -190.5q0 -66 -26 -120t-71 -103t-106.5 -96.5t-132.5 -100.5q86 -152 212 -273.5t285 -238.5q53 68 80 141.5 t41 122.5q6 23 29 23q29 0 29 -29q0 -12 -5 -29q-16 -61 -46.5 -133.5t-77.5 -132.5q66 -47 124 -78.5t129 -64.5q23 -8 23 -25q0 -29 -29 -28q-6 0 -18 4q-43 16 -78 32.5t-65.5 34t-61 36.5t-65.5 44q-70 -74 -165.5 -119t-236.5 -45q-90 0 -169 24.5t-136 72t-90 118 t-33 162.5zM152 348q0 -78 29.5 -137t79.5 -100t116.5 -62.5t140.5 -21.5q131 0 217 45t137 100q-84 63 -156.5 124.5t-135 124t-115.5 130t-96 145.5q-43 -33 -82 -68.5t-70 -77.5t-48 -91t-17 -111zM287 1116q0 -102 27.5 -182t74.5 -158q61 45 115.5 88t95.5 87 t64.5 93.5t23.5 104.5q0 104 -56.5 155.5t-135.5 51.5q-96 0 -152.5 -64.5t-56.5 -175.5z" />
<glyph unicode="'" horiz-adv-x="407" d="M170 1360q0 35 35 35q16 0 26.5 -8.5t8.5 -26.5l-17 -350q0 -16 -18 -17q-20 0 -21 17z" />
<glyph unicode="(" horiz-adv-x="622" d="M162 606q0 121 7 258t40 263t102.5 228.5t192.5 153.5q2 0 3 1t3 1h4q29 0 29 -28q0 -18 -17 -25q-76 -29 -127 -84t-84.5 -127.5t-52 -155.5t-27 -168t-10.5 -167t-2 -150q0 -102 5 -231t34 -253t90.5 -224.5t173.5 -143.5q16 -6 17 -24q0 -29 -29 -29h-4q-4 0 -6 2 q-123 51 -192.5 153.5t-102.5 228.5t-40 263t-7 258z" />
<glyph unicode=")" horiz-adv-x="622" d="M80 -270q0 18 16 24q113 43 174.5 143.5t90 224.5t33.5 253t5 231q0 68 -2 150t-10 167t-26.5 168t-52.5 155.5t-86 128t-126 83.5q-16 6 -16 25q0 29 29 28h4q2 0 3 -1t3 -1q123 -51 192.5 -153.5t102 -228.5t40 -263t7.5 -258t-7.5 -258t-40 -263t-102 -228.5 t-192.5 -153.5q-2 -2 -6 -2h-4q-29 0 -29 29z" />
<glyph unicode="*" horiz-adv-x="731" d="M61 1202q0 10 6.5 20.5t18.5 10.5q6 0 18 -4l240 -70l-6 246q0 16 7 21.5t20 5.5q14 0 21 -5.5t7 -21.5l-6 -246l240 70q12 4 18 4q12 0 18.5 -10.5t6.5 -20.5q0 -18 -23 -24l-244 -56l154 -207q4 -4 6 -8t2 -10q0 -10 -12 -19.5t-23 -9.5q-8 0 -16 13l-149 223 l-148 -223q-10 -12 -16 -13q-10 0 -22.5 9.5t-12.5 19.5q0 6 2 10t6 8l154 207l-244 56q-23 6 -23 24z" />
<glyph unicode="+" horiz-adv-x="929" d="M0 446q0 27 27 27h407v408q0 12 9.5 21t21.5 9t21.5 -9t9.5 -21v-408h407q27 0 27 -27t-27 -26h-407v-406q0 -12 -9.5 -21t-21.5 -9t-21.5 9t-9.5 21v406h-407q-27 0 -27 26z" />
<glyph unicode="," horiz-adv-x="288" d="M86 -221q0 6 4 14q23 41 32 71t9 52q0 20 -5 36.5t-12.5 30t-12.5 25.5t-5 27q0 18 11.5 31.5t33.5 13.5q27 0 39.5 -18.5t12.5 -67.5q0 -66 -20.5 -127.5t-47.5 -95.5q-8 -10 -21 -11q-18 0 -18 19z" />
<glyph unicode="-" horiz-adv-x="577" d="M74 516q0 27 26 27h375q27 0 27 -27t-27 -27h-375q-27 0 -26 27z" />
<glyph unicode="." horiz-adv-x="288" d="M96 31q0 49 47 49t47 -49q0 -47 -47 -47t-47 47z" />
<glyph unicode="/" horiz-adv-x="833" d="M102 -170q0 6 2 12l566 1674q5 22 28 22q33 0 33 -33q0 -4 -2 -10l-565 -1675q-6 -20 -31 -21q-14 0 -22.5 10.5t-8.5 20.5z" />
<glyph unicode="0" horiz-adv-x="1212" d="M111 690q0 190 28.5 325.5t89 222.5t154.5 128t223 41t223.5 -41t154.5 -128t89 -222t29 -326q0 -190 -29 -325.5t-89 -223.5t-154.5 -129t-223.5 -41t-223 41t-154.5 129t-89 223.5t-28.5 325.5zM174 690q0 -174 24.5 -299t77 -206t134 -119.5t196.5 -38.5t197 38.5 t134 119.5t76.5 206t24.5 299t-24.5 299t-76.5 206t-134 120t-197 39t-196.5 -39t-134 -120t-77 -206t-24.5 -299z" />
<glyph unicode="1" horiz-adv-x="718" d="M109 1118q0 14 12 25l350 243q10 8 23 9q31 0 30 -31v-1350q0 -12 -9 -21t-23 -9t-22.5 9t-8.5 21v1295l-305 -213q-10 -6 -19 -6q-10 0 -19 8t-9 20z" />
<glyph unicode="2" horiz-adv-x="1083" d="M102 29q0 117 60.5 202.5t150.5 155.5t194.5 131.5t195 132t150.5 156.5t60 207q0 72 -22.5 133t-66.5 106t-111.5 71t-155.5 26q-80 0 -137.5 -17.5t-99 -48.5t-68.5 -73t-43 -91q-6 -16 -27 -16q-29 0 -28 29q0 6 2 12q41 123 141 192.5t260 69.5q102 0 181 -28.5 t132.5 -80t81 -124t27.5 -160.5q0 -123 -60.5 -216t-150.5 -168t-194.5 -138.5t-194.5 -129t-150.5 -139t-60.5 -166.5h805q29 0 28 -28q0 -29 -28 -29h-842q-29 0 -29 29z" />
<glyph unicode="3" horiz-adv-x="1095" d="M84 215q0 29 29 29q18 0 26 -17q49 -98 142.5 -147t238.5 -49q199 0 296 95t97 267q0 82 -18 148.5t-61 113.5t-113 74t-172 27h-150q-29 0 -28 28q0 12 10 23l448 514h-636q-29 0 -29 29t29 28h700q29 0 29 -28q0 -10 -7 -19l-454 -518h100q121 0 201 -35t128 -92 t68.5 -134t20.5 -159q0 -199 -115.5 -310.5t-343.5 -111.5q-170 0 -274.5 59.5t-155.5 164.5q-6 12 -6 20z" />
<glyph unicode="4" horiz-adv-x="1083" d="M51 365q0 8 6 18l699 993q12 18 28 19q33 0 33 -33v-969h166q29 0 29 -28q0 -29 -29 -29h-166v-322q0 -12 -8 -21t-23 -9q-16 0 -24 9t-8 21v322h-674q-29 0 -29 29zM135 393h619v879z" />
<glyph unicode="5" horiz-adv-x="1128" d="M86 258q0 29 29 29q6 0 14 -3t12 -14q111 -242 414 -241q88 0 160.5 22.5t125 70.5t81 125t28.5 185q0 106 -28.5 182t-81 124t-125 70.5t-160.5 22.5q-129 0 -216 -39.5t-165 -125.5q-4 -4 -9 -8.5t-15 -4.5q-29 0 -29 29q0 6 2 14l127 660q4 23 26 22h660q29 0 29 -28 q0 -29 -29 -29h-635l-117 -578q51 57 142.5 101.5t228.5 44.5q102 0 187 -27.5t145.5 -84t94.5 -142.5t34 -203q0 -121 -34 -207t-94.5 -143t-145.5 -84t-187 -27q-168 0 -286.5 67.5t-180.5 209.5q-2 4 -2 10z" />
<glyph unicode="6" horiz-adv-x="1159" d="M111 655q0 199 32.5 342.5t97 233.5t159 133t214.5 43q119 0 202 -35t120 -72q10 -10 10 -22q0 -27 -26 -27q-10 0 -21 9q-59 47 -125.5 68.5t-159.5 21.5q-117 0 -200.5 -45t-137 -127t-78 -199t-24.5 -260v-119q23 55 59.5 103.5t87 84t116 57t145.5 21.5 q102 0 188 -26.5t147.5 -82t96.5 -139t35 -198.5q0 -119 -35 -204t-96.5 -139t-147.5 -80t-188 -26q-139 0 -229.5 51.5t-144.5 141.5t-75.5 216t-21.5 275zM184 500q10 -227 109 -348t289 -121q88 0 161.5 19.5t127 64.5t83 119.5t29.5 185.5q0 104 -29.5 179t-83 121 t-127 67.5t-161.5 21.5q-160 0 -252 -84t-146 -225z" />
<glyph unicode="7" horiz-adv-x="989" d="M61 1350q0 29 29 28h811q27 0 27 -26q0 -121 -45 -214.5t-111.5 -179.5t-145.5 -174t-145.5 -196.5t-111.5 -248.5t-45 -329q0 -10 -9.5 -18t-19.5 -8t-21.5 8t-11.5 18q0 190 44 333.5t111.5 255.5t144.5 201t144.5 171t111.5 165t44 185h-772q-29 0 -29 29z" />
<glyph unicode="8" horiz-adv-x="1126" d="M96 369q0 162 84 258t221 127q-109 23 -174 102.5t-65 212.5q0 86 29.5 150.5t82 105.5t126 61.5t163.5 20.5t164 -20.5t127 -61.5t82 -105.5t29 -150.5q0 -133 -65.5 -213t-174.5 -102q137 -31 221 -127.5t84 -257.5q0 -100 -33.5 -175t-95 -124.5t-148 -74 t-190.5 -24.5t-190 24.5t-147.5 74t-95.5 124t-34 175.5zM162 369q0 -92 30.5 -157t85 -105.5t128 -59t157.5 -18.5q86 0 159 18.5t127 59t85 105t31 157.5q0 92 -30 158.5t-83 109.5t-127 63.5t-162 20.5q-90 0 -163.5 -20.5t-126 -63.5t-82 -109.5t-29.5 -158.5zM221 1069 q0 -150 93.5 -221.5t248.5 -71.5q156 0 249 72t93 221q0 147 -91 215t-251 68t-251 -67.5t-91 -215.5z" />
<glyph unicode="9" horiz-adv-x="1159" d="M111 958q0 119 34.5 204t96 139.5t147.5 80t189 25.5q137 0 228 -51t145.5 -141.5t76 -216.5t21.5 -275q0 -201 -33 -343t-97.5 -232.5t-158.5 -133.5t-215 -43q-119 0 -202 35t-120 72q-10 10 -10 22q0 27 27 27q10 0 20 -8q59 -47 126 -68.5t159 -21.5q117 0 200.5 45 t137 127t78 198.5t24.5 259.5v119q-23 -55 -59.5 -103t-87 -84t-115.5 -57.5t-145 -21.5q-102 0 -188.5 26.5t-148 82t-96 139.5t-34.5 198zM176 958q0 -104 30 -178.5t83 -121t126.5 -68t162.5 -21.5q160 0 252 84t145 226q-10 227 -108.5 348t-288.5 121q-88 0 -162 -19.5 t-127 -64.5t-83 -120t-30 -186z" />
<glyph unicode=":" horiz-adv-x="288" d="M96 31q0 49 47 49t47 -49q0 -47 -47 -47t-47 47zM96 885q0 49 47 49t47 -49q0 -47 -47 -47t-47 47z" />
<glyph unicode=";" horiz-adv-x="288" d="M86 -221q0 6 4 14q23 41 32 71t9 52q0 20 -5 36.5t-12.5 30t-12.5 25.5t-5 27q0 18 11.5 31.5t33.5 13.5q27 0 39.5 -18.5t12.5 -67.5q0 -66 -20.5 -127.5t-47.5 -95.5q-8 -10 -21 -11q-18 0 -18 19zM96 885q0 49 47 49t47 -49q0 -47 -47 -47t-47 47z" />
<glyph unicode="&#x3c;" horiz-adv-x="704" d="M16 481q0 16 15 27l610 479q8 6 18 6q29 0 29 -28q0 -14 -10 -23l-586 -461l586 -461q10 -8 10 -22q0 -29 -29 -29q-10 0 -18 6l-610 480q-15 10 -15 26z" />
<glyph unicode="=" horiz-adv-x="929" d="M0 291q0 27 27 26h876q27 1 27 -26t-27 -27h-876q-27 0 -27 27zM0 604q0 27 27 27h876q27 0 27 -27t-27 -26h-876q-27 0 -27 26z" />
<glyph unicode="&#x3e;" horiz-adv-x="704" d="M16 -2q0 14 11 22l585 461l-585 461q-10 8 -11 23q0 29 29 28q8 0 18 -6l611 -479q14 -11 14 -27t-14 -26l-611 -480q-10 -6 -18 -6q-29 0 -29 29z" />
<glyph unicode="?" horiz-adv-x="944" d="M84 1042q0 80 22.5 147.5t69.5 116t119 75t168 26.5q184 0 289.5 -96.5t105.5 -255.5q0 -104 -33.5 -174t-84 -119t-110 -85t-109.5 -72t-84 -80t-34 -107q0 -39 11.5 -65.5t31.5 -51.5q6 -8 7.5 -12t1.5 -8q0 -14 -9.5 -21.5t-19.5 -7.5q-15 0 -25 10q-33 33 -46 75 t-13 81q0 74 34 123t84 88t109.5 74.5t109.5 81.5t84 109.5t34 160.5q0 141 -88 220t-246 79q-164 0 -241 -79t-77 -233q0 -12 -9 -21t-21 -9t-21.5 9t-9.5 21zM367 31q0 49 47 49t47 -49q0 -47 -47 -47t-47 47z" />
<glyph unicode="@" horiz-adv-x="1642" d="M86 352q0 190 50 330.5t144.5 232t230.5 136.5t308 45q160 0 295 -43t233.5 -129t153.5 -217.5t55 -307.5q0 -66 -14 -140.5t-52 -138t-103.5 -104.5t-165.5 -41q-68 0 -119 19.5t-74 83.5q-39 -47 -99.5 -75t-164.5 -28q-74 0 -127 17.5t-87 48.5t-49.5 71t-15.5 83 q0 115 88.5 166t233.5 51h213v94q0 45 -18.5 78.5t-49 55.5t-70.5 32t-85 10q-66 0 -112 -21.5t-83 -58.5q-12 -12 -24 -12q-25 0 -25 26q0 10 8 19q12 14 31.5 31.5t49.5 33t68 25.5t87 10t99 -12t90 -41t65.5 -74t25.5 -110v-355q0 -39 10.5 -62.5t30 -35.5t46 -16 t57.5 -4q53 0 103 18t88 61t60.5 115t22.5 180q0 156 -47 276t-135 201.5t-213 123.5t-281 42q-317 0 -494.5 -168.5t-177.5 -521.5q0 -354 177.5 -521t494.5 -167q133 0 256 26.5t232 106.5q10 8 20 8q27 0 27 -26q0 -14 -13 -23q-92 -76 -224 -110.5t-298 -34.5 q-346 0 -539.5 181t-193.5 560zM547 195q0 -29 10 -59t35.5 -54.5t67.5 -39.5t104 -15q68 0 116 14t79.5 38.5t46 54.5t14.5 61v165h-229q-123 0 -183.5 -39.5t-60.5 -125.5z" />
<glyph unicode="A" horiz-adv-x="1261" d="M70 33l530 1339q8 23 31 23q25 0 33 -23l528 -1339q4 -8 4 -17q0 -32 -33 -32h-2q-23 0 -33 24l-167 430h-660l-170 -432q-8 -22 -31 -22h-2q-32 0 -32 30q0 10 4 19zM322 498h618l-309 794z" />
<glyph unicode="B" horiz-adv-x="1138" d="M184 33v1313q0 32 31 32h2h361q209 0 306 -92t97 -248q0 -72 -21.5 -124t-55.5 -89t-72.5 -58.5t-73.5 -29.5q55 -8 107.5 -32.5t92 -67.5t64.5 -107.5t25 -152.5q0 -174 -101.5 -275.5t-298.5 -101.5h-430q-33 0 -33 33zM250 57h397q170 0 252 85t82 235 q0 164 -86 242.5t-252 78.5h-393v-641zM250 756h328q166 0 251.5 73.5t85.5 208.5q0 137 -81.5 210t-255.5 73h-328v-565z" />
<glyph unicode="C" horiz-adv-x="1273" d="M90 688q0 365 167 542t464 177q147 0 266 -57.5t189 -155.5q8 -12 8 -23q0 -29 -29 -28q-14 0 -25 12q-61 84 -167.5 139.5t-241.5 55.5q-270 0 -417.5 -161t-147.5 -501q0 -180 37.5 -306t109.5 -204t177.5 -113.5t240.5 -35.5q117 0 227.5 46t181.5 144q10 12 25 12 q29 0 29 -28q0 -10 -6 -19q-33 -49 -82 -89t-108.5 -67.5t-127 -42t-139.5 -14.5q-147 0 -265 41t-199 128t-124 222.5t-43 325.5z" />
<glyph unicode="D" horiz-adv-x="1243" d="M184 33v1313q0 32 31 32h2h305q147 0 264 -36.5t198 -118.5t125 -213t44 -322q0 -190 -44 -321t-125 -212t-197.5 -118t-264.5 -37h-305q-33 0 -33 33zM250 57h272q131 0 235.5 31t178.5 104.5t112.5 194.5t38.5 301q0 178 -38.5 300t-112.5 195.5t-178.5 105.5 t-235.5 32h-272v-1264z" />
<glyph unicode="E" horiz-adv-x="1048" d="M184 33v1313q0 32 31 32h2h694q29 0 29 -28q0 -29 -29 -29h-661v-598h516q29 0 29 -29t-29 -28h-516v-609h686q29 0 29 -28q0 -29 -29 -29h-719q-33 0 -33 33z" />
<glyph unicode="F" horiz-adv-x="1048" d="M184 33v1313q0 32 31 32h2h694q29 0 29 -28q0 -29 -29 -29h-661v-619h516q29 0 29 -28q0 -29 -29 -29h-516v-612q0 -33 -33 -33t-33 33z" />
<glyph unicode="G" horiz-adv-x="1376" d="M90 688q0 190 43 325.5t124 223.5t198.5 129t265.5 41q147 0 266 -57.5t189 -155.5q8 -12 8 -23q0 -29 -29 -28q-14 0 -25 12q-61 84 -167.5 139.5t-241.5 55.5q-133 0 -237.5 -36t-177.5 -116t-111.5 -206t-38.5 -304q0 -180 37.5 -306t109.5 -204t177.5 -113.5 t240.5 -35.5q82 0 152.5 17t127 45t99.5 65t71 73v359h-401q-29 0 -29 28q0 29 29 29h434q10 0 19.5 -8t9.5 -19v-378q0 -25 -19 -45q-37 -43 -83 -83t-106 -72t-135 -50.5t-169 -18.5q-147 0 -265 41t-199 128t-124 222.5t-43 325.5z" />
<glyph unicode="H" horiz-adv-x="1318" d="M184 16v1346q0 33 33 33t33 -33v-625h819v625q0 33 33 33t33 -33v-1346q0 -32 -31 -32h-2q-33 0 -33 32v662h-819v-662q0 -32 -31 -32h-2q-33 0 -33 32z" />
<glyph unicode="I" horiz-adv-x="434" d="M184 16v1346q0 33 33 33t33 -33v-1346q0 -32 -31 -32h-2q-33 0 -33 32z" />
<glyph unicode="J" horiz-adv-x="821" d="M33 45q0 12 9 21.5t21 9.5q8 0 25 -8q41 -23 87 -31t93 -8q82 0 140.5 27.5t95.5 77.5t53 117.5t16 147.5v963q0 33 33 33t33 -33v-963q0 -90 -19.5 -168.5t-64.5 -136t-115.5 -90.5t-171.5 -33q-57 0 -117.5 12t-101.5 35q-16 10 -16 27z" />
<glyph unicode="K" horiz-adv-x="1122" d="M184 16v1346q0 33 33 33t33 -33v-784l704 804q12 12 27 13q35 0 35 -35q0 -14 -10 -25l-476 -534l545 -764q6 -10 6 -21q0 -12 -9 -22t-25 -10t-29 16l-531 750l-237 -265v-469q0 -32 -31 -32h-2q-33 0 -33 32z" />
<glyph unicode="L" horiz-adv-x="976" d="M184 29v1333q0 33 33 33t33 -33v-1305h637q29 0 28 -28q0 -29 -28 -29h-674q-29 0 -29 29z" />
<glyph unicode="M" horiz-adv-x="1568" d="M164 14v1350q0 12 9 21.5t22 9.5q18 0 26 -17l553 -1056l553 1056q8 16 27 17q12 0 21 -9.5t9 -21.5v-1350q0 -12 -9 -21t-21 -9t-21.5 9t-9.5 21v1229l-520 -993q-13 -21 -29 -21t-29 21l-520 993v-1229q0 -12 -9 -21t-21 -9t-21.5 9t-9.5 21z" />
<glyph unicode="N" horiz-adv-x="1271" d="M164 14v1350q0 12 9 21.5t22 9.5q16 0 24 -13l828 -1269v1251q0 12 9 21.5t21 9.5t21.5 -9.5t9.5 -21.5v-1348q0 -32 -31 -32h-2q-18 0 -31 18l-819 1262v-1250q0 -12 -9 -21t-21 -9t-21.5 9t-9.5 21z" />
<glyph unicode="O" horiz-adv-x="1441" d="M90 688q0 365 167 542t464 177t464 -177t167 -542q0 -362 -167 -539.5t-464 -177.5t-464 177.5t-167 539.5zM156 688q0 -340 147.5 -499.5t417.5 -159.5t417.5 159.5t147.5 499.5t-147.5 501t-417.5 161t-417.5 -161t-147.5 -501z" />
<glyph unicode="P" horiz-adv-x="1110" d="M184 16v1330q0 32 31 32h2h432q78 0 146.5 -23.5t119 -71.5t79 -119.5t28.5 -170.5q0 -96 -28.5 -167.5t-78 -120t-118 -73t-148.5 -24.5h-399v-592q0 -32 -31 -32h-2q-33 0 -33 32zM250 666h377q154 0 241.5 82.5t87.5 244.5q0 166 -89 247t-240 81h-377v-655z" />
<glyph unicode="Q" horiz-adv-x="1439" d="M90 688q0 365 167 542t464 177t464 -177t167 -542q0 -291 -114 -463t-308 -225q74 -14 128 -54t111 -100q10 -10 11 -24q0 -12 -9.5 -21.5t-23.5 -9.5q-12 0 -23 10q-66 72 -145.5 121t-196.5 49h-61q-297 0 -464 177.5t-167 539.5zM156 688q0 -340 147.5 -499.5 t417.5 -159.5t417.5 159.5t147.5 499.5t-147.5 501t-417.5 161t-417.5 -161t-147.5 -501z" />
<glyph unicode="R" horiz-adv-x="1124" d="M184 16v1330q0 32 31 32h2h430q82 0 150.5 -29.5t119 -79.5t78 -119t27.5 -146q0 -78 -26.5 -147t-75 -120t-117 -80.5t-150.5 -29.5h-49q123 -170 221 -299q41 -55 80 -108.5t70 -94.5t48 -65.5t17 -22.5q0 -2 2 -6q4 -8 5 -15q0 -32 -33 -32h-2q-18 0 -29 16l-453 627 h-280v-611q0 -32 -31 -32h-2q-33 0 -33 32zM250 686h403q68 0 123 24.5t95 66.5t62.5 100.5t22.5 126.5t-22.5 126t-63.5 101t-98 66.5t-125 23.5h-397v-635z" />
<glyph unicode="S" horiz-adv-x="1095" d="M59 238q0 12 9.5 21t21.5 9q16 0 27 -16q59 -92 159.5 -157.5t255.5 -65.5q201 0 306.5 78.5t105.5 244.5q0 84 -35 139.5t-92 94.5t-131 66.5t-149.5 52t-149.5 52t-131 69.5t-92 102.5t-35 148.5q0 66 24.5 126.5t76 105.5t130 71.5t189.5 26.5q145 0 250.5 -52 t177.5 -151q6 -10 6 -18q0 -12 -9 -21.5t-22 -9.5q-16 0 -24 12q-27 35 -59.5 68t-78 59.5t-104.5 42t-137 15.5q-96 0 -164 -22.5t-110 -60.5t-61 -87t-19 -105q0 -102 60 -160.5t150.5 -98.5t197 -71.5t196.5 -78.5t150.5 -120t60.5 -196q0 -186 -123 -283.5t-355 -97.5 q-88 0 -159.5 19.5t-129 53.5t-101.5 79t-76 96q-6 8 -7 19z" />
<glyph unicode="T" horiz-adv-x="1089" d="M59 1350q0 28 27 28h2h913q29 0 29 -28q0 -29 -29 -29h-423v-1305q0 -32 -31 -32h-2q-33 0 -33 32v1305h-424q-29 0 -29 29z" />
<glyph unicode="U" horiz-adv-x="1284" d="M184 406v956q0 33 33 33t33 -33v-956q0 -72 16.5 -139.5t60.5 -121t122.5 -85t203.5 -31.5t203 31.5t122 85t60.5 121t16.5 139.5v956q0 33 32 33q33 0 33 -33v-956q0 -82 -20.5 -160t-72.5 -139.5t-142.5 -98.5t-231.5 -37t-232 37t-143.5 98.5t-73 139.5t-20.5 160z " />
<glyph unicode="V" horiz-adv-x="1163" d="M39 1360q0 35 33 35q25 0 32 -23l480 -1268l475 1268q4 8 10 15.5t21 7.5q34 0 34 -33q0 -6 -1 -7t-1 -5q-2 -4 -2 -7l-506 -1339q-6 -20 -32 -20q-25 0 -31 20l-508 1339q-2 0 -2 5q-2 2 -2 12z" />
<glyph unicode="W" horiz-adv-x="1687" d="M39 1360q0 35 33 35q25 0 32 -23l357 -1261l352 1261q6 23 31 23q27 0 33 -23l350 -1255l356 1255q8 23 31 23q35 0 35 -35q0 -6 -2 -12l-387 -1340q-6 -24 -31 -24h-2q-25 0 -31 22l-352 1247l-352 -1247q-6 -22 -31 -22h-2q-10 0 -18.5 6t-12.5 16l-387 1344 q-2 6 -2 10z" />
<glyph unicode="X" horiz-adv-x="995" d="M8 16q0 10 6 21l447 672l-420 632q-6 8 -6 19q0 35 33 35q20 0 30 -17l400 -610l397 610q10 16 29 17q35 0 34 -35q0 -10 -6 -19l-417 -632l444 -672q6 -10 6 -21q0 -32 -33 -32h-2q-18 0 -28 16l-424 651l-426 -651q-10 -16 -31 -16q-33 0 -33 32z" />
<glyph unicode="Y" horiz-adv-x="1030" d="M35 1360q0 35 33 35q20 0 30 -17l416 -665l414 665q10 16 28 17q35 0 35 -35q0 -12 -6 -21l-438 -688v-635q0 -32 -33 -32t-33 32v635l-440 688q-6 8 -6 21z" />
<glyph unicode="Z" horiz-adv-x="1017" d="M29 47l850 1274h-783q-29 0 -28 29q0 28 26 28h2h832q29 0 28 -28q0 -10 -6 -19l-846 -1274h857q29 0 28 -28q0 -29 -28 -29h-912q-26 0 -26 27q0 10 6 20z" />
<glyph unicode="[" horiz-adv-x="477" d="M150 -272v1757q0 27 26 26h189q27 0 26 -26q0 -27 -26 -27h-154v-1704h154q26 1 26 -26t-26 -27h-189q-27 0 -26 27z" />
<glyph unicode="\" horiz-adv-x="835" d="M102 1505q0 33 33 33q23 0 29 -22l565 -1674q2 -6 2 -12q0 -10 -8 -20.5t-23 -10.5q-25 0 -30 21l-566 1675q-2 6 -2 10z" />
<glyph unicode="]" horiz-adv-x="479" d="M86 -272q0 27 27 26h153v1704h-153q-27 0 -27 27t27 26h188q27 0 27 -26v-1757q0 -27 -27 -27h-188q-27 0 -27 27z" />
<glyph unicode="^" horiz-adv-x="958" d="M90 784q0 8 6 19l357 594q10 18 26 18t27 -18l356 -594q6 -10 6 -19q0 -29 -28 -28q-18 0 -27 16l-334 563l-334 -563q-8 -16 -26 -16q-29 0 -29 28z" />
<glyph unicode="_" horiz-adv-x="831" d="M-43 -141q0 27 27 26h864q26 1 26 -26t-26 -27h-864q-27 0 -27 27z" />
<glyph unicode="`" horiz-adv-x="757" d="M256 1300q-23 23 2 46t45 -3l203 -241q12 -16 -4 -33q-6 -6 -14.5 -7t-18.5 9z" />
<glyph unicode="a" d="M74 258q0 135 101 210t278 75h315v94q0 131 -80 199.5t-221 68.5q-61 0 -106.5 -12t-78 -33.5t-55 -48.5t-41.5 -55q-8 -14 -24 -15q-29 0 -29 29q0 8 6 18q41 66 120 118t208 52q188 0 273 -93t85 -244v-607q0 -29 -28 -28q-29 0 -29 28v121q-51 -82 -142 -121t-196 -39 q-174 0 -265 74t-91 209zM137 258q0 -106 71.5 -167.5t221.5 -61.5q68 0 128 18.5t107.5 54t75 90t27.5 125.5v175h-315q-139 0 -227.5 -57.5t-88.5 -176.5z" />
<glyph unicode="b" horiz-adv-x="1038" d="M143 371v1056q0 12 9.5 21.5t21.5 9.5t21.5 -9t9.5 -22v-663q29 53 76 96q41 37 103.5 67.5t154.5 30.5q197 0 308 -119.5t111 -371.5t-111.5 -373t-307.5 -121q-86 0 -159 25t-125 74t-82 123.5t-30 175.5zM205 371q0 -90 24.5 -154.5t69.5 -106.5t106.5 -62.5 t133.5 -20.5q174 0 264 104.5t90 335.5q0 229 -90 333.5t-264 104.5q-92 0 -156 -38t-104 -83q-47 -53 -74 -118v-295z" />
<glyph unicode="c" horiz-adv-x="901" d="M80 467q0 252 111.5 371.5t308.5 119.5q76 0 130 -17t90 -40.5t55.5 -46.5t27.5 -33q6 -10 6 -18q0 -27 -27 -27q-14 0 -22 12q-12 14 -31.5 35t-50.5 39.5t-74 30.5t-104 12q-174 0 -264.5 -104.5t-90.5 -333.5q0 -231 90.5 -335.5t264.5 -104.5q53 0 95 10t74.5 24.5 t57.5 32t45 33.5q8 6 16 6q27 0 27 -27q0 -12 -12 -22q-16 -12 -42 -30.5t-62.5 -37t-87 -31t-111.5 -12.5q-197 0 -308.5 121t-111.5 373z" />
<glyph unicode="d" horiz-adv-x="1028" d="M80 467q0 252 111.5 371.5t308.5 119.5q94 0 158.5 -30.5t103.5 -67.5q45 -43 72 -96v663q0 12 9 21.5t21 9.5t21.5 -9t9.5 -22v-1056q0 -100 -29.5 -175t-82 -124t-125 -74t-158.5 -25q-197 0 -308.5 121t-111.5 373zM145 467q0 -231 90.5 -335.5t264.5 -104.5 q72 0 133 20.5t105 62.5t70 106.5t26 154.5v295q-27 66 -72 118q-39 45 -102.5 83t-159.5 38q-174 0 -264.5 -104.5t-90.5 -333.5z" />
<glyph unicode="e" horiz-adv-x="954" d="M82 467q0 240 109.5 365.5t308.5 125.5q127 0 203.5 -42t116.5 -102t52.5 -128t12.5 -119v-36.5t-4 -38.5q-6 -33 -45 -33h-691q0 -223 98.5 -327.5t278.5 -104.5q57 0 101.5 9t78 23.5t60 33t49.5 36.5q8 6 16 6q27 0 27 -26q0 -10 -12 -23q-12 -12 -37 -30.5t-65 -37 t-94 -32t-124 -13.5q-102 0 -184 29t-138.5 88.5t-87 153.5t-30.5 223zM145 510h678v22q0 10 1 19.5t1 15.5q0 61 -14 122t-50 109t-99.5 77.5t-161.5 29.5q-174 0 -261 -105.5t-94 -289.5z" />
<glyph unicode="f" horiz-adv-x="563" d="M51 903q0 27 27 27h117v129q0 68 19 130t61 109.5t108 76t156 28.5q26 0 26 -25q0 -29 -26 -28q-76 0 -130.5 -21.5t-88 -60.5t-49 -92.5t-15.5 -116.5v-129h242q27 0 26 -27q0 -27 -26 -26h-242v-863q0 -12 -9 -21t-22 -9q-12 0 -21 9t-9 21v863h-117q-27 0 -27 26z" />
<glyph unicode="g" horiz-adv-x="954" d="M76 -139q0 49 15 87t41 66.5t57.5 47t64.5 26.5q-25 6 -50.5 15.5t-47 26.5t-34.5 44t-13 68q0 104 104 139q-96 86 -96 246q0 154 94 242.5t268 88.5q72 0 131.5 -16t104.5 -45q16 55 63 88t121 33q27 0 27 -27t-27 -26q-68 0 -98.5 -26t-44.5 -77q86 -90 86 -235 q0 -154 -94.5 -243t-268.5 -89q-137 0 -225 53q-47 -12 -67.5 -38.5t-20.5 -67.5q0 -55 43 -83t147 -28h256q68 0 126.5 -15.5t102.5 -47t69.5 -81.5t25.5 -118q0 -76 -33 -129t-90 -87t-137 -49.5t-172 -15.5q-78 0 -155 12.5t-137 44t-98 84t-38 132.5zM139 -139 q0 -61 30 -103.5t80 -68t116.5 -36.5t140.5 -11t140.5 11t116.5 36.5t79.5 69.5t29.5 110q0 57 -20.5 97t-56 64.5t-82.5 35t-101 10.5h-250q-115 -16 -169 -72.5t-54 -142.5zM180 627q0 -131 75 -205t224 -74q150 0 224.5 74t74.5 205t-74.5 204.5t-224.5 73.5 t-224.5 -73.5t-74.5 -204.5z" />
<glyph unicode="h" horiz-adv-x="1015" d="M143 14v1413q0 12 9.5 21.5t21.5 9.5t21.5 -9t9.5 -22v-665q12 31 35.5 65.5t62.5 63.5t94.5 48t128.5 19q111 0 181.5 -29.5t112.5 -80.5t57.5 -116.5t15.5 -135.5v-582q0 -12 -9.5 -21t-21.5 -9t-21.5 9t-9.5 21v582q0 61 -13 117.5t-47 99.5t-93.5 67.5t-153.5 24.5 q-84 0 -144.5 -28.5t-99 -75.5t-57 -106.5t-18.5 -119.5v-561q0 -12 -9.5 -21t-21.5 -9t-21.5 9t-9.5 21z" />
<glyph unicode="i" horiz-adv-x="358" d="M147 1255q0 43 37 43t37 -43t-37 -43t-37 43zM154 14v901q0 12 9 21.5t21 9.5t21.5 -9t9.5 -22v-901q0 -12 -9 -21t-22 -9q-12 0 -21 9t-9 21z" />
<glyph unicode="j" horiz-adv-x="368" d="M-86 -385q0 27 27 27q100 0 161.5 69.5t61.5 169.5v1034q0 12 9.5 21.5t21.5 9.5t21 -9t9 -22v-1034q0 -61 -21.5 -114.5t-59.5 -93.5t-90 -62.5t-113 -22.5q-27 0 -27 27zM156 1255q0 43 37 43t36 -43q1 -43 -36 -43t-37 43z" />
<glyph unicode="k" horiz-adv-x="897" d="M143 14v1413q0 12 9.5 21.5t21.5 9.5t21.5 -9t9.5 -22v-974l579 485q10 8 21 8q12 0 21.5 -9t9.5 -22q0 -16 -13 -24l-401 -330l424 -526q8 -10 8 -21q0 -12 -9.5 -21t-21.5 -9t-22 10l-426 530l-170 -145v-365q0 -12 -9.5 -21t-21.5 -9t-21.5 9t-9.5 21z" />
<glyph unicode="l" horiz-adv-x="399" d="M143 205v1222q0 12 9.5 21.5t21.5 9.5t21.5 -9t9.5 -22v-1222q0 -90 31.5 -129t97.5 -39q26 0 26 -25q0 -28 -24 -28h-2q-92 0 -141.5 55t-49.5 166z" />
<glyph unicode="m" horiz-adv-x="1654" d="M143 14v901q0 12 9.5 21.5t21.5 9.5t21.5 -9t9.5 -22v-155q10 33 33.5 68.5t62.5 64.5t92 47t123 18q145 0 223 -54t107 -136q10 33 34.5 66.5t64.5 61.5t95 45t127 17q111 0 181.5 -29.5t111.5 -80.5t56.5 -116.5t15.5 -135.5v-582q0 -12 -9.5 -21t-21.5 -9t-21.5 9 t-9.5 21v582q0 61 -14 117.5t-48 99.5t-93.5 68.5t-147.5 25.5q-80 0 -137 -25.5t-93 -68.5t-52.5 -99.5t-16.5 -119.5v-580q0 -12 -9 -21t-21 -9t-21.5 9t-9.5 21v582q0 61 -12.5 117.5t-45 99.5t-91 68.5t-148.5 25.5q-80 0 -138.5 -30.5t-95 -81t-54 -115t-17.5 -129.5 v-537q0 -12 -9.5 -21t-21.5 -9t-21.5 9t-9.5 21z" />
<glyph unicode="n" horiz-adv-x="1015" d="M143 14v901q0 12 9.5 21.5t21.5 9.5t21.5 -9t9.5 -22v-153q12 31 36.5 65.5t63.5 63.5t94.5 48t126.5 19q111 0 181.5 -29.5t112.5 -80.5t57.5 -116.5t15.5 -135.5v-582q0 -12 -9.5 -21t-21.5 -9t-21.5 9t-9.5 21v582q0 61 -13 117.5t-47 99.5t-93.5 67.5t-153.5 24.5 q-84 0 -144.5 -28.5t-99 -75.5t-57 -106.5t-18.5 -119.5v-561q0 -12 -9.5 -21t-21.5 -9t-21.5 9t-9.5 21z" />
<glyph unicode="o" horiz-adv-x="999" d="M80 467q0 252 111.5 371.5t308.5 119.5t308.5 -119.5t111.5 -371.5t-112 -373t-308 -121q-197 0 -308.5 121t-111.5 373zM145 467q0 -229 90.5 -334.5t264.5 -105.5t264 105.5t90 334.5q0 227 -90 332.5t-264 105.5t-264.5 -105.5t-90.5 -332.5z" />
<glyph unicode="p" horiz-adv-x="1042" d="M143 -381v1296q0 12 9.5 21.5t21.5 9.5t21.5 -9t9.5 -22v-159q41 98 125 150t213 52q197 0 308.5 -119.5t111.5 -371.5t-112 -373t-308 -121q-102 0 -167 31t-104 68q-45 43 -67 98v-551q0 -12 -9.5 -21.5t-21.5 -9.5t-21.5 9.5t-9.5 21.5zM201 467q0 -119 25.5 -202 t71.5 -136t108.5 -77.5t136.5 -24.5q174 0 264 104.5t90 335.5q0 229 -93 333.5t-267 104.5q-156 0 -246 -104.5t-90 -333.5z" />
<glyph unicode="q" horiz-adv-x="1005" d="M92 467q0 252 111.5 371.5t308.5 119.5q88 0 160.5 -24.5t126 -73.5t83 -123.5t29.5 -173.5v-944q0 -12 -9 -21.5t-21 -9.5t-21.5 9.5t-9.5 21.5v551q-27 -55 -74 -98q-41 -37 -105.5 -68t-158.5 -31q-197 0 -308.5 121t-111.5 373zM158 467q0 -231 90 -335.5t264 -104.5 q94 0 157.5 36.5t104.5 81.5q47 53 76 121v297q0 90 -25.5 154.5t-71.5 106.5t-107.5 61.5t-133.5 19.5q-174 0 -264 -104.5t-90 -333.5z" />
<glyph unicode="r" horiz-adv-x="604" d="M143 14v901q0 12 9.5 21.5t21.5 9.5t21.5 -9t9.5 -22v-200q33 104 119 172.5t231 68.5q27 0 27 -26q0 -27 -27 -27q-88 0 -153.5 -31.5t-109.5 -87t-65.5 -129t-21.5 -157.5v-484q0 -12 -9.5 -21t-21.5 -9t-21.5 9t-9.5 21z" />
<glyph unicode="s" horiz-adv-x="817" d="M53 135q0 12 8.5 19.5t18.5 7.5t18 -8q53 -59 124 -93t188 -34q55 0 105 10t88 34.5t60.5 62.5t22.5 93q0 66 -43 107t-108.5 69.5t-141.5 52t-141.5 57.5t-108.5 84t-43 132q0 59 23.5 102t64.5 72t95.5 42t117.5 13q104 0 179 -32.5t127 -89.5q8 -10 8 -21 q0 -27 -27 -27q-4 0 -8 1.5t-10 7.5q-53 53 -116 80.5t-153 27.5q-45 0 -88 -9t-76.5 -29.5t-54 -54.5t-20.5 -83q0 -68 43 -108.5t108.5 -70.5t141 -53.5t141.5 -56t109 -83t43 -130.5q0 -66 -26 -113.5t-72 -78.5t-107.5 -46.5t-132.5 -15.5q-129 0 -220.5 45t-128.5 97 q-8 10 -8 20z" />
<glyph unicode="t" horiz-adv-x="542" d="M41 903q0 27 27 27h127v250q0 12 9 21t21 9t21.5 -9t9.5 -21v-250h184q27 0 27 -27t-27 -26h-184v-652q0 -92 47 -140t123 -48q27 0 27 -27q0 -26 -25 -26h-2q-113 0 -172 68.5t-59 172.5v652h-127q-27 0 -27 26z" />
<glyph unicode="u" horiz-adv-x="995" d="M123 338v577q0 12 9.5 21.5t21.5 9.5t21 -9t9 -22v-577q0 -63 12.5 -119.5t47.5 -99.5t95 -67.5t159 -24.5q98 0 158.5 24.5t95 67.5t47 99t12.5 120v577q0 12 9 21.5t22 9.5q12 0 21 -9t9 -22v-577q0 -72 -15 -137.5t-56 -116.5t-114 -81t-189 -30q-117 0 -189.5 30 t-113.5 81t-56.5 116.5t-15.5 137.5z" />
<glyph unicode="v" horiz-adv-x="876" d="M37 915q0 12 9 21.5t22 9.5q14 0 20 -8t8 -12l342 -848l342 848q2 4 8.5 12t20.5 8q12 0 21.5 -9t9.5 -22q0 -8 -4 -16l-371 -899q-8 -16 -27 -16q-18 0 -26 16l-371 899q-4 8 -4 16z" />
<glyph unicode="w" horiz-adv-x="1343" d="M37 915q0 12 8 21.5t21 9.5q23 0 28 -20l301 -842l250 844q2 6 8 12t17 6q12 0 18 -6t8 -12l250 -844l303 842q6 20 29 20q29 0 29 -28q0 -6 -4 -19l-328 -895q-6 -20 -29 -20q-25 0 -31 20l-243 827l-246 -827q-6 -20 -31 -20q-20 0 -26 20l-328 895q-4 12 -4 16z" />
<glyph unicode="x" horiz-adv-x="788" d="M33 14q0 8 6 19l323 442l-315 422q-6 8 -6 18q0 12 9 21.5t22 9.5q16 0 26 -14l301 -412l291 410q4 6 10.5 11t16.5 5q12 0 21.5 -9t9.5 -22q0 -10 -7 -18l-309 -430l318 -434q6 -10 6 -19q0 -12 -9.5 -21t-21.5 -9q-16 0 -25 12l-305 432l-307 -432q-10 -12 -25 -12 q-12 0 -21 9t-9 21z" />
<glyph unicode="y" horiz-adv-x="876" d="M4 -385q0 27 27 27q84 0 139 21.5t95 66.5t72 113.5t71 164.5l-367 891q-4 8 -4 16q0 12 9 21.5t22 9.5q14 0 20 -8t8 -12l342 -848l342 848q2 4 8.5 12t20.5 8q12 0 21.5 -9t9.5 -22q0 -8 -4 -16l-433 -1042q-31 -76 -66.5 -127.5t-79.5 -83t-99.5 -45t-126.5 -13.5 q-27 0 -27 27z" />
<glyph unicode="z" horiz-adv-x="794" d="M45 27q0 6 6 16l608 834h-557q-26 -1 -26 26t26 27h611q27 0 26 -27q0 -10 -8 -22l-602 -828h598q27 0 27 -26q0 -27 -27 -27h-655q-27 0 -27 27z" />
<glyph unicode="{" horiz-adv-x="602" d="M55 606q0 25 25 25h20q94 0 153.5 51t59.5 172q0 123 -13 239.5t-13 245.5q0 82 52 127t134 45q27 0 27 -26q0 -27 -27 -27q-55 0 -88 -29.5t-33 -89.5q0 -121 6.5 -244.5t6.5 -242.5q0 -109 -53.5 -177.5t-149.5 -68.5q96 0 149.5 -68.5t53.5 -177.5q0 -119 -6.5 -242.5 t-6.5 -244.5q0 -59 33 -89t88 -30q27 0 27 -26q0 -27 -27 -27q-82 0 -134 46t-52 126q0 129 13 246t13 239q0 121 -59 172.5t-154 51.5h-20q-25 0 -25 24z" />
<glyph unicode="|" horiz-adv-x="446" d="M193 -297v1921q0 12 9 21.5t21 9.5t21.5 -9.5t9.5 -21.5v-1921q0 -12 -9 -21.5t-22 -9.5q-12 0 -21 9.5t-9 21.5z" />
<glyph unicode="}" horiz-adv-x="602" d="M102 -272q0 26 27 26q55 0 88 30t33 89q0 121 -6 245t-6 242q0 109 53 177.5t149 68.5q-96 0 -149 68.5t-53 177.5q0 119 6 243t6 244q0 59 -33 89t-88 30q-27 0 -27 27t27 26q82 0 134 -45t52 -127q0 -129 -13 -245.5t-13 -239.5q0 -121 59.5 -172t153.5 -51h20 q25 0 25 -25t-25 -24h-20q-94 0 -153.5 -51.5t-59.5 -172.5q0 -123 13 -239.5t13 -245.5q0 -80 -52 -126t-134 -46q-27 0 -27 27z" />
<glyph unicode="~" horiz-adv-x="976" d="M104 549q0 4 2.5 9l4.5 9q10 18 28.5 45t45 50.5t62.5 40t81 16.5q57 0 103 -22.5t86 -50.5t80 -50.5t87 -22.5q37 0 64.5 12.5t49 32t36 41t24.5 39.5q4 6 9.5 12.5t15.5 6.5t17 -7.5t7 -17.5q0 -8 -4 -16q-10 -23 -28.5 -49.5t-46 -49t-63.5 -39t-81 -16.5 q-53 0 -97 22.5t-86 49.5t-83 49.5t-90 22.5q-37 0 -66 -13.5t-49 -32t-34.5 -40t-24.5 -39.5q-4 -8 -9.5 -12.5t-15.5 -4.5q-25 0 -25 25z" />
<glyph unicode="&#xa1;" horiz-adv-x="288" d="M96 911q0 47 47 47t47 -47q0 -49 -47 -49t-47 49zM106 -418l17 1088q0 18 20 18t21 -18l16 -1088q0 -18 -10 -26.5t-27 -8.5q-16 0 -26.5 8.5t-10.5 26.5z" />
<glyph unicode="&#xa2;" horiz-adv-x="901" d="M82 467q0 242 101.5 360.5t287.5 128.5v140q0 29 29 28q29 0 28 -28v-140q72 -4 124.5 -22.5t86 -42t51 -44t23.5 -26.5q6 -10 6 -18q0 -27 -26 -27q-14 0 -23 12q-12 14 -32.5 35t-52.5 39.5t-77 30.5t-108 12q-174 0 -265.5 -104.5t-91.5 -333.5q0 -231 91.5 -335.5 t265.5 -104.5q53 0 95 10t74.5 24.5t57.5 32t45 33.5q8 6 16 6q27 0 27 -27q0 -12 -12 -22q-14 -12 -39 -28.5t-58.5 -34t-77.5 -31t-100 -15.5v-165q0 -29 -28 -29q-29 0 -29 29v165q-186 10 -287.5 129t-101.5 363z" />
<glyph unicode="&#xa3;" horiz-adv-x="1210" d="M154 637q0 27 26 27h111q-47 84 -84 170t-37 190q0 82 29.5 152.5t86 122t136.5 80t178 28.5q180 0 289.5 -68.5t148.5 -199.5q4 -12 4 -19q0 -12 -9 -21t-21 -9q-23 0 -31 26q-41 117 -127 177.5t-254 60.5q-80 0 -147.5 -22.5t-116.5 -65.5t-77 -104.5t-28 -137.5 q0 -90 34 -172t93 -188h392q27 0 26 -27q0 -27 -26 -27h-369q27 -53 42 -112.5t15 -128.5q0 -41 -13 -83t-34.5 -80t-48.5 -70t-51 -52q37 16 74.5 28.5t97.5 12.5q68 0 116 -16.5t89 -36t80.5 -36t89.5 -16.5q80 0 145.5 31t106.5 115q8 16 24 16q29 0 29 -26q0 -10 -4 -19 q-49 -98 -126 -134t-175 -36q-57 0 -101.5 16.5t-86.5 36t-86 36t-99 16.5q-53 0 -94 -10.5t-72 -24.5t-50.5 -27.5t-27.5 -19.5q-12 -8 -22 -8q-31 0 -31 30q0 14 14 27q33 27 67 63.5t62.5 80.5t47 91.5t18.5 94.5q0 66 -17.5 124t-46.5 117h-133q-27 0 -26 27z" />
<glyph unicode="&#xa4;" horiz-adv-x="956" d="M61 246q0 12 11 22l125 131q-80 102 -80 240q0 70 21.5 131t60.5 109l-127 135q-10 10 -11 22q0 27 27 27q10 0 21 -10l129 -133q47 43 109.5 67.5t133.5 24.5q72 0 131.5 -23.5t106.5 -64.5l127 129q10 10 20 10q27 0 27 -27q0 -12 -10 -22l-125 -131 q39 -49 60.5 -110.5t21.5 -133.5t-21.5 -133.5t-60.5 -108.5l125 -129q10 -10 10 -22q0 -27 -27 -27q-10 0 -20 10l-125 127q-47 -43 -107.5 -66.5t-132.5 -23.5t-135 24.5t-110 67.5l-127 -129q-10 -10 -21 -10q-27 0 -27 27zM174 639q0 -66 22.5 -124t63.5 -101t97 -69 t124 -26t123 26t95 69t61.5 101t21.5 124t-21.5 124t-61.5 101t-95 68.5t-123 25.5t-124 -25.5t-97 -68.5t-63.5 -101t-22.5 -124z" />
<glyph unicode="&#xa5;" horiz-adv-x="1028" d="M35 1360q0 35 33 35q20 0 30 -17l416 -665l414 665q10 16 28 17q35 0 35 -35q0 -12 -6 -21l-438 -688h280q27 0 27 -26q0 -27 -27 -27h-280v-154h280q27 0 27 -26q0 -27 -27 -27h-280v-375q0 -32 -33 -32t-33 32v375h-282q-27 0 -27 27t27 26h282v154h-282q-27 0 -27 27 t27 26h282l-440 688q-6 8 -6 21z" />
<glyph unicode="&#xa6;" horiz-adv-x="446" d="M193 -297v866q0 12 9 21.5t21 9.5t21.5 -9t9.5 -22v-866q0 -12 -9 -21.5t-22 -9.5q-12 0 -21 9.5t-9 21.5zM193 760v864q0 12 9 21.5t21 9.5t21.5 -9.5t9.5 -21.5v-864q0 -12 -9 -21.5t-22 -9.5q-12 0 -21 9.5t-9 21.5z" />
<glyph unicode="&#xa7;" horiz-adv-x="1032" d="M92 580q0 92 39 160.5t98 121.5q-47 43 -75.5 100.5t-28.5 133.5q0 63 23.5 119.5t72.5 99.5t126 67.5t183 24.5q131 0 232.5 -49t157.5 -127q6 -10 6 -21q0 -25 -27 -24q-14 0 -22 10q-16 18 -42 45t-68 52.5t-99.5 43t-137.5 17.5q-94 0 -158.5 -21.5t-104.5 -56.5 t-58.5 -82t-18.5 -98q0 -100 55.5 -158.5t138.5 -95.5t180.5 -65.5t180 -70.5t138 -108t55.5 -178q0 -86 -40 -164t-97 -121q47 -41 75.5 -98t28.5 -131q0 -63 -23.5 -120.5t-73.5 -101.5t-128 -70t-184 -26q-131 0 -228.5 49.5t-156.5 126.5q-8 10 -9 21q0 29 27 29 q18 0 29 -17q14 -23 42.5 -50.5t69.5 -51t97.5 -38.5t128.5 -15q94 0 159.5 21.5t106.5 58t59.5 85t18.5 99.5q0 102 -55.5 160.5t-138.5 95.5t-180 64.5t-180 68.5t-138.5 106.5t-55.5 178.5zM158 580q0 -74 28.5 -122t76.5 -81t109.5 -55.5t128 -44t133 -47t122.5 -62.5 q55 41 85.5 102.5t30.5 149.5q0 72 -28.5 121t-75.5 83.5t-108.5 58.5t-128 45.5t-132 46t-123.5 59.5q-55 -41 -86.5 -104.5t-31.5 -149.5z" />
<glyph unicode="&#xa8;" horiz-adv-x="507" d="M45 1161q0 47 45 47t45 -47t-45 -47t-45 47zM373 1161q0 47 45 47t45 -47t-45 -47t-45 47z" />
<glyph unicode="&#xa9;" horiz-adv-x="1662" d="M117 688q0 365 180 542t502 177t502 -177t180 -542q0 -362 -180 -539.5t-502 -177.5t-502 177.5t-180 539.5zM178 688q0 -342 160 -502.5t461 -160.5t460.5 160.5t159.5 502.5q0 344 -158.5 505t-461.5 161t-462 -161t-159 -505zM467 688q0 205 88 291t246 86 q49 0 90 -11.5t73.5 -29.5t55 -39.5t33.5 -42.5q4 -8 4 -16q0 -25 -23 -25q-14 0 -22 10q-35 47 -87.5 74t-123.5 27q-66 0 -116 -15.5t-85 -52.5t-53.5 -99.5t-18.5 -156.5q0 -96 18.5 -157.5t53.5 -96.5t85 -48t116 -13q63 0 120.5 23.5t88.5 74.5q8 12 22 12 q10 0 17.5 -7t7.5 -17q0 -12 -6 -21q-37 -53 -104.5 -87t-145.5 -34t-140.5 19.5t-105.5 63.5t-65.5 115t-22.5 173z" />
<glyph unicode="&#xaa;" horiz-adv-x="780" d="M82 584q0 27 27 26h561q26 1 26 -26t-26 -27h-561q-27 0 -27 27zM123 936q0 86 65.5 139t188.5 53h213v54q0 172 -195 172q-43 0 -73.5 -8.5t-52 -20.5t-35 -25.5l-23.5 -23.5q-8 -8 -18 -8q-27 0 -27 26q0 6 6 17q27 37 86 66.5t137 29.5q133 0 191.5 -66.5t58.5 -171.5 v-397q0 -27 -27 -27t-26 27v76q-35 -55 -93.5 -82t-129.5 -27q-117 0 -181.5 52.5t-64.5 144.5zM180 936q1 -143 189 -143q43 0 83 11t70.5 33.5t49 56.5t18.5 79v104h-219q-86 0 -138.5 -34.5t-52.5 -106.5z" />
<glyph unicode="&#xab;" horiz-adv-x="950" d="M123 434q0 8 6 15l360 423q8 8 21 9q29 0 29 -29q0 -12 -7 -18l-346 -400l346 -399q6 -6 7 -19q0 -29 -29 -28q-12 0 -21 8l-360 424q-6 6 -6 14zM410 434q0 8 6 15l360 423q8 8 21 9q29 0 28 -29q0 -12 -6 -18l-346 -400l346 -399q6 -6 6 -19q0 -29 -28 -28q-12 0 -21 8 l-360 424q-6 6 -6 14z" />
<glyph unicode="&#xac;" horiz-adv-x="1153" d="M106 602q0 27 27 27h885q27 0 26 -27v-473q0 -12 -9 -21.5t-21 -9.5t-21.5 9.5t-9.5 21.5v446h-850q-27 0 -27 27z" />
<glyph unicode="&#xad;" horiz-adv-x="577" d="M74 516q0 27 26 27h375q27 0 27 -27t-27 -27h-375q-27 0 -26 27z" />
<glyph unicode="&#xae;" horiz-adv-x="772" d="M86 1096q0 160 79 235.5t220 75.5q143 0 222 -76t79 -235q0 -160 -79 -237t-222 -77q-141 0 -220 77t-79 237zM131 1096q0 -141 65.5 -207t188.5 -66t189.5 65.5t66.5 207.5q0 139 -66.5 204.5t-189.5 65.5t-188.5 -65.5t-65.5 -204.5zM274 956v277q0 23 23 22h119 q47 0 70.5 -29.5t23.5 -68.5t-23.5 -65.5t-60.5 -30.5l70 -86q8 -8 8 -19q0 -23 -23 -22q-12 0 -20 12l-84 115h-58v-105q0 -23 -22 -22q-23 0 -23 22zM319 1102h87q29 0 43 15.5t14 39.5q0 57 -57 57h-87v-112z" />
<glyph unicode="&#xaf;" horiz-adv-x="782" d="M150 1161q0 27 26 27h430q27 0 27 -27t-27 -26h-430q-27 0 -26 26z" />
<glyph unicode="&#xb0;" horiz-adv-x="729" d="M86 1126q0 57 21.5 108.5t60.5 90.5t89 60.5t110 21.5q57 0 108 -21.5t90 -60.5t60.5 -90t21.5 -109q0 -59 -21.5 -109t-60.5 -89t-90 -60.5t-108 -21.5q-59 0 -109.5 21.5t-89.5 60.5t-60.5 89t-21.5 109zM139 1124q0 -47 17.5 -88t47 -71.5t70.5 -48t91 -17.5 q49 0 91 17.5t72.5 48t48 71.5t17.5 88q0 45 -17.5 87t-48 74t-72.5 50.5t-91 18.5t-90.5 -18.5t-71 -50.5t-47 -74t-17.5 -87z" />
<glyph unicode="&#xb1;" horiz-adv-x="929" d="M0 27q0 27 27 26h876q27 1 27 -26t-27 -27h-876q-27 0 -27 27zM0 627q0 27 27 26h407v408q0 12 9.5 21.5t21.5 9.5t21.5 -9.5t9.5 -21.5v-408h407q27 1 27 -26t-27 -27h-407v-405q0 -12 -9.5 -21.5t-21.5 -9.5t-21.5 9t-9.5 22v405h-407q-27 0 -27 27z" />
<glyph unicode="&#xb2;" horiz-adv-x="530" d="M49 893q0 59 27.5 99t69.5 69t90.5 52.5t90.5 50t69.5 62.5t27.5 89q0 55 -37 95t-125 40q-61 0 -94 -26.5t-53 -71.5q-6 -14 -21 -15q-23 0 -22 23v4q0 4 2 8q20 55 70.5 89t117.5 34q104 0 159.5 -50t55.5 -130q0 -57 -27.5 -98t-69.5 -72t-90 -55.5t-90 -50t-70 -54.5 t-28 -70h349q23 0 22 -22q0 -23 -22 -23h-379q-23 0 -23 23z" />
<glyph unicode="&#xb3;" horiz-adv-x="526" d="M47 979q0 20 21 20q12 0 18 -10q27 -45 64.5 -65.5t101.5 -20.5q90 0 131 35t41 113q0 72 -35 109.5t-131 37.5h-65q-6 0 -9.5 6t-3.5 10q0 6 4 11l195 213h-279q-23 0 -22 22q0 23 22 23h326q23 0 23 -23q0 -10 -9 -18l-180 -199h23q53 0 90 -16.5t60.5 -44t33.5 -61.5 t10 -70q0 -86 -54 -139.5t-171 -53.5q-76 0 -126 27.5t-73 75.5q-6 12 -6 18z" />
<glyph unicode="&#xb4;" horiz-adv-x="757" d="M252 1102l203 241q20 26 45 3t2 -46l-213 -229q-10 -10 -18.5 -9t-14.5 7q-16 16 -4 33z" />
<glyph unicode="&#xb5;" horiz-adv-x="995" d="M123 -389v1304q0 12 9.5 21.5t21.5 9.5t21 -9t9 -22v-577q0 -63 12.5 -119.5t47.5 -99.5t95 -67.5t159 -24.5q98 0 158.5 24.5t95 67.5t47 99t12.5 120v577q0 12 9 21.5t22 9.5q12 0 21 -9t9 -22v-577q0 -72 -15 -137.5t-56 -116.5t-114 -81t-189 -30q-125 0 -205 43 t-109 105v-510q0 -12 -9 -21.5t-21 -9.5t-21.5 9.5t-9.5 21.5z" />
<glyph unicode="&#xb6;" horiz-adv-x="888" d="M43 -23q0 27 27 27q4 0 10 -2q55 -16 110 -16q76 0 130.5 29.5t89 84t51 130t16.5 165.5v340h-112q-66 0 -124.5 25.5t-101.5 68.5t-68.5 101.5t-25.5 126.5q0 66 25.5 124t68.5 102t101.5 69.5t124.5 25.5h460q27 1 27 -26t-27 -27h-65v-674q0 -379 -142.5 -549 t-427.5 -170q-39 0 -74.5 6.5t-58.5 16.5q-14 6 -14 22zM418 23q61 25 112.5 71.5t88 121.5t58 182.5t21.5 252.5v674h-159v-924q0 -70 -8.5 -124t-23.5 -99t-38 -83t-51 -72z" />
<glyph unicode="&#xb7;" horiz-adv-x="335" d="M106 614q0 63 60 64q61 0 61 -64q0 -59 -61 -59q-59 0 -60 59z" />
<glyph unicode="&#xb8;" horiz-adv-x="645" d="M154 -408q0 20 18 21q6 0 16 -6q16 -10 39 -19.5t58 -9.5q139 0 139 137q0 74 -38 101.5t-85 27.5q-31 0 -48 -6t-28 -6q-23 0 -22 23l8 145h41l-10 -127l16 4q20 4 43 4q78 0 125 -42t47 -124q0 -76 -48 -125t-140 -49q-43 0 -76 11.5t-49 25.5q-6 6 -6 14z" />
<glyph unicode="&#xb9;" horiz-adv-x="356" d="M41 1356q0 14 12 22l150 103q12 8 20 8q25 0 25 -25v-575q0 -25 -25 -25t-24 25v530l-117 -80q-10 -6 -19 -6q-23 0 -22 23z" />
<glyph unicode="&#xba;" horiz-adv-x="681" d="M18 584q0 27 27 26h592q27 1 27 -26t-27 -27h-592q-27 0 -27 27zM53 1073q0 170 76 252t211 82t211 -82t76 -252t-76 -252t-211 -82t-211 82t-76 252zM111 1073q0 -147 59 -213.5t170 -66.5t170 66.5t59 213.5q0 141 -59 211t-170 70t-170 -70t-59 -211z" />
<glyph unicode="&#xbb;" d="M123 16q0 12 6 19l346 399l-346 400q-6 6 -6 18q0 29 29 29q12 0 20 -9l360 -423q6 -6 7 -15q0 -8 -7 -14l-360 -424q-8 -8 -20 -8q-29 0 -29 28zM410 16q0 12 6 19l346 399l-346 400q-6 6 -6 18q0 29 28 29q12 0 21 -9l360 -423q6 -6 6 -15q0 -8 -6 -14l-360 -424 q-8 -8 -21 -8q-29 0 -28 28z" />
<glyph unicode="&#xbc;" horiz-adv-x="960" d="M78 1268q0 14 12 22l150 103q12 8 20 8q25 0 25 -25v-575q0 -25 -25 -25t-24 25v530l-117 -80q-10 -6 -19 -6q-23 0 -22 23zM182 6q0 4 4 17l525 1355q6 17 22 17q23 0 23 -23q0 -8 -4 -16l-527 -1358q-4 -14 -20 -14q-23 0 -23 22zM438 162q0 2 1 7t3 7l306 418q4 4 8 9 t14 5q25 0 25 -24v-400h63q23 0 23 -22q0 -23 -23 -23h-63v-131q0 -25 -25 -24q-25 0 -25 24v131h-284q-23 0 -23 23zM504 184h241v332z" />
<glyph unicode="&#xbd;" horiz-adv-x="1044" d="M78 1268q0 14 12 22l150 103q12 8 20 8q25 0 25 -25v-575q0 -25 -25 -25t-24 25v530l-117 -80q-10 -6 -19 -6q-23 0 -22 23zM182 6q0 4 4 17l525 1355q6 17 22 17q23 0 23 -23q0 -8 -4 -16l-527 -1358q-4 -14 -20 -14q-23 0 -23 22zM563 23q0 59 27.5 99t69.5 68.5 t90.5 52t90.5 50t69.5 62.5t27.5 89q0 55 -37 95.5t-125 40.5q-61 0 -94 -27t-53 -72q-6 -14 -21 -14q-23 0 -22 22v5q0 4 2 8q20 55 70.5 89t117.5 34q104 0 159.5 -50.5t55.5 -130.5q0 -57 -27.5 -98t-69.5 -71.5t-90 -55t-90 -50.5t-70 -54.5t-28 -69.5h349q23 0 22 -22 q0 -23 -22 -23h-379q-23 0 -23 23z" />
<glyph unicode="&#xbe;" horiz-adv-x="1071" d="M47 891q0 20 21 20q12 0 18 -10q27 -45 64.5 -65.5t101.5 -20.5q90 0 131 35t41 113q0 72 -35 109.5t-131 37.5h-43q-23 0 -22 23q0 10 8 18l178 199h-279q-23 0 -22 22q0 23 22 23h326q23 0 23 -23q0 -10 -9 -18l-182 -199h25q53 0 90 -16.5t60.5 -44t33.5 -61.5t10 -70 q0 -86 -54 -139.5t-171 -53.5q-76 0 -126 27.5t-73 74.5q-6 12 -6 19zM293 6q0 4 4 17l524 1355q7 17 23 17q23 0 22 -23q0 -8 -4 -16l-526 -1358q-4 -14 -21 -14q-23 0 -22 22zM549 162q0 2 1 7t3 7l305 418q4 4 8 9t15 5q25 0 24 -24v-400h64q23 0 22 -22q0 -23 -22 -23 h-64v-131q0 -25 -24 -24q-25 0 -25 24v131h-285q-23 0 -22 23zM614 184h242v332z" />
<glyph unicode="&#xbf;" horiz-adv-x="944" d="M86 -113q0 104 34 174t84 119t109.5 85t109.5 72t84 79t34 108q0 39 -11.5 65.5t-31.5 51.5q-6 8 -7.5 12t-1.5 9q0 14 9.5 21t19.5 7q15 0 25 -10q33 -33 46 -75t13 -81q0 -74 -33.5 -123t-84 -88t-110 -74.5t-109.5 -81.5t-84 -109.5t-34 -160.5q0 -141 88.5 -220 t245.5 -79q164 0 241 79t77 233q0 12 9 21t21 9t21.5 -9t9.5 -21q0 -162 -93 -263.5t-286 -101.5q-184 0 -289.5 96.5t-105.5 255.5zM483 911q0 47 47 47t48 -47q0 -49 -48 -49q-47 0 -47 49z" />
<glyph unicode="&#xc0;" horiz-adv-x="1261" d="M66 16q0 8 4 17l530 1339q8 23 31 23q25 0 33 -23l528 -1339q4 -8 4 -17q0 -33 -35 -32q-23 0 -33 24l-167 430h-660l-170 -432q-8 -23 -33 -22q-33 0 -32 32zM322 498h618l-309 794zM471 1716q-23 22 2 45t45 -2l203 -241q12 -16 -4 -33q-6 -6 -14.5 -7t-18.5 9z" />
<glyph unicode="&#xc1;" horiz-adv-x="1261" d="M66 16q0 8 4 17l530 1339q8 23 31 23q25 0 33 -23l528 -1339q4 -8 4 -17q0 -33 -35 -32q-23 0 -33 24l-167 430h-660l-170 -432q-8 -23 -33 -22q-33 0 -32 32zM322 498h618l-309 794zM526 1518l203 241q20 25 45 2t2 -45l-213 -229q-10 -10 -18 -9t-15 7q-16 16 -4 33z " />
<glyph unicode="&#xc2;" horiz-adv-x="1261" d="M66 16q0 8 4 17l530 1339q8 23 31 23q25 0 33 -23l528 -1339q4 -8 4 -17q0 -33 -35 -32q-23 0 -33 24l-167 430h-660l-170 -432q-8 -23 -33 -22q-33 0 -32 32zM322 498h618l-309 794zM395 1511q0 8 3 12.5t8 8.5l202 182q10 10 23 10q12 0 22 -10l203 -182q4 -4 7 -8 t3 -13q0 -27 -26 -26q-10 0 -19 8l-190 172l-191 -172q-8 -8 -18 -8q-27 0 -27 26z" />
<glyph unicode="&#xc3;" horiz-adv-x="1261" d="M66 16q0 8 4 17l530 1339q8 23 31 23q25 0 33 -23l528 -1339q4 -8 4 -17q0 -33 -35 -32q-23 0 -33 24l-167 430h-660l-170 -432q-8 -23 -33 -22q-33 0 -32 32zM322 498h618l-309 794zM338 1520q0 8 4 16q14 33 50 67.5t102 34.5q43 0 76.5 -13t64.5 -30.5t61.5 -31 t67.5 -13.5q49 0 70.5 24.5t33.5 55.5q6 16 25 17q27 0 27 -27q0 -8 -5 -16q-6 -16 -18 -35t-30.5 -34t-44 -26.5t-58.5 -11.5q-43 0 -77 13.5t-64.5 31t-61.5 30.5t-67 13q-47 0 -69 -22.5t-36 -53.5q-6 -16 -24 -16q-27 0 -27 27z" />
<glyph unicode="&#xc4;" horiz-adv-x="1261" d="M66 16q0 8 4 17l530 1339q8 23 31 23q25 0 33 -23l528 -1339q4 -8 4 -17q0 -33 -35 -32q-23 0 -33 24l-167 430h-660l-170 -432q-8 -23 -33 -22q-33 0 -32 32zM322 498h618l-309 794zM422 1565q0 47 45 47t45 -47t-45 -47t-45 47zM750 1565q0 47 45 47t45 -47t-45 -47 t-45 47z" />
<glyph unicode="&#xc5;" horiz-adv-x="1261" d="M66 16q0 8 4 17l530 1339q8 23 31 23q25 0 33 -23l528 -1339q4 -8 4 -17q0 -33 -35 -32q-23 0 -33 24l-167 430h-660l-170 -432q-8 -23 -33 -22q-33 0 -32 32zM322 498h618l-309 794zM418 1640q0 94 51 147.5t162 53.5t162 -53t51 -148q0 -94 -51.5 -147t-161.5 -53 q-111 0 -162 53t-51 147zM471 1640q0 -80 37 -117.5t123 -37.5t123 38t37 117q0 80 -37 118t-123 38t-123 -38t-37 -118z" />
<glyph unicode="&#xc6;" horiz-adv-x="1748" d="M29 16q0 12 8 23l848 1317q8 10 15 16t24 6h688q29 0 28 -28q0 -29 -28 -29h-662v-598h516q29 0 29 -29t-29 -28h-516v-609h686q29 0 29 -28q0 -29 -29 -29h-718q-33 0 -33 33v405h-516l-279 -438q-10 -16 -29 -16q-33 0 -32 32zM403 498h482v753z" />
<glyph unicode="&#xc7;" horiz-adv-x="1273" d="M90 688q0 365 167 542t464 177q147 0 266 -57.5t189 -155.5q8 -12 8 -23q0 -29 -29 -28q-14 0 -25 12q-61 84 -167.5 139.5t-241.5 55.5q-270 0 -417.5 -161t-147.5 -501q0 -180 37.5 -306t109.5 -204t177.5 -113.5t240.5 -35.5q117 0 227.5 46t181.5 144q10 12 25 12 q29 0 29 -28q0 -10 -6 -19q-33 -49 -82 -89t-108.5 -67.5t-127 -42t-139.5 -14.5h-27l-8 -98l16 4q20 4 43 4q78 0 125.5 -42t47.5 -124q0 -76 -48.5 -125t-140.5 -49q-43 0 -75.5 11.5t-49.5 25.5q-6 6 -6 14q0 20 18 21q6 0 17 -6q16 -10 38.5 -19.5t57.5 -9.5 q139 0 139 137q0 74 -37.5 101.5t-85.5 27.5q-31 0 -48 -6t-27 -6q-23 0 -23 23l6 120q-133 8 -237.5 53.5t-177 132.5t-110.5 218t-38 309z" />
<glyph unicode="&#xc8;" horiz-adv-x="1048" d="M184 33v1313q0 33 33 32h694q29 0 29 -28q0 -29 -29 -29h-661v-598h516q29 0 29 -29t-29 -28h-516v-609h686q29 0 29 -28q0 -29 -29 -29h-719q-33 0 -33 33zM440 1716q-23 22 2 45t45 -2l203 -241q12 -16 -4 -33q-6 -6 -14 -7t-19 9z" />
<glyph unicode="&#xc9;" horiz-adv-x="1048" d="M184 33v1313q0 33 33 32h694q29 0 29 -28q0 -29 -29 -29h-661v-598h516q29 0 29 -29t-29 -28h-516v-609h686q29 0 29 -28q0 -29 -29 -29h-719q-33 0 -33 33zM475 1518l203 241q20 25 45 2t2 -45l-213 -229q-10 -10 -18.5 -9t-14.5 7q-16 16 -4 33z" />
<glyph unicode="&#xca;" horiz-adv-x="1048" d="M184 33v1313q0 33 33 32h694q29 0 29 -28q0 -29 -29 -29h-661v-598h516q29 0 29 -29t-29 -28h-516v-609h686q29 0 29 -28q0 -29 -29 -29h-719q-33 0 -33 33zM340 1511q0 8 3 12.5t7 8.5l203 182q10 10 22 10t23 -10l203 -182q4 -4 7 -8t3 -13q0 -27 -27 -26q-10 0 -18 8 l-191 172l-190 -172q-8 -8 -18 -8q-27 0 -27 26z" />
<glyph unicode="&#xcb;" horiz-adv-x="1048" d="M184 33v1313q0 33 33 32h694q29 0 29 -28q0 -29 -29 -29h-661v-598h516q29 0 29 -29t-29 -28h-516v-609h686q29 0 29 -28q0 -29 -29 -29h-719q-33 0 -33 33zM369 1565q0 47 45 47t45 -47t-45 -47t-45 47zM696 1565q0 47 45 47t45 -47t-45 -47t-45 47z" />
<glyph unicode="&#xcc;" horiz-adv-x="434" d="M63 1716q-22 22 3 45t45 -2l202 -241q12 -16 -4 -33q-6 -6 -14 -7t-19 9zM184 16v1346q0 33 33 33t33 -33v-1346q0 -33 -33 -32q-33 0 -33 32z" />
<glyph unicode="&#xcd;" horiz-adv-x="434" d="M133 1518l203 241q20 25 45 2t2 -45l-213 -229q-10 -10 -18.5 -9t-14.5 7q-16 16 -4 33zM184 16v1346q0 33 33 33t33 -33v-1346q0 -33 -33 -32q-33 0 -33 32z" />
<glyph unicode="&#xce;" horiz-adv-x="434" d="M-20 1511q0 8 3 12.5t7 8.5l203 182q10 10 22 10t23 -10l202 -182q4 -4 7.5 -8t3.5 -13q0 -27 -27 -26q-10 0 -18 8l-191 172l-190 -172q-8 -8 -19 -8q-27 0 -26 26zM184 16v1346q0 33 33 33t33 -33v-1346q0 -33 -33 -32q-33 0 -33 32z" />
<glyph unicode="&#xcf;" horiz-adv-x="434" d="M6 1565q0 47 45 47t45 -47t-45 -47t-45 47zM184 16v1346q0 33 33 33t33 -33v-1346q0 -33 -33 -32q-33 0 -33 32zM334 1565q0 47 45 47t45 -47t-45 -47t-45 47z" />
<glyph unicode="&#xd0;" horiz-adv-x="1243" d="M49 715q0 27 27 26h108v605q0 33 33 32h305q147 0 264 -36.5t198 -118.5t125 -213t44 -322q0 -190 -44 -321t-125 -212t-197.5 -118t-264.5 -37h-305q-33 0 -33 33v655h-108q-27 0 -27 27zM250 57h272q131 0 235.5 31t178.5 104.5t112.5 194.5t38.5 301q0 178 -38.5 300 t-112.5 195.5t-178.5 105.5t-235.5 32h-272v-580h471q27 1 27 -26t-27 -27h-471v-631z" />
<glyph unicode="&#xd1;" horiz-adv-x="1271" d="M164 14v1350q0 12 9 21.5t22 9.5q16 0 24 -13l828 -1269v1251q0 12 9 21.5t21 9.5t21.5 -9.5t9.5 -21.5v-1348q0 -33 -33 -32q-18 0 -31 18l-819 1262v-1250q0 -12 -9 -21t-21 -9t-21.5 9t-9.5 21zM367 1520q0 8 4 16q14 33 50 67.5t101 34.5q43 0 77 -13t64.5 -30.5 t61.5 -31t68 -13.5q49 0 70.5 24.5t33.5 55.5q6 16 25 17q27 0 26 -27q0 -8 -4 -16q-6 -16 -18.5 -35t-30.5 -34t-43.5 -26.5t-58.5 -11.5q-43 0 -77 13.5t-64.5 31t-61.5 30.5t-68 13q-47 0 -68.5 -22.5t-35.5 -53.5q-6 -16 -25 -16q-27 0 -26 27z" />
<glyph unicode="&#xd2;" horiz-adv-x="1441" d="M90 688q0 365 167 542t464 177t464 -177t167 -542q0 -362 -167 -539.5t-464 -177.5t-464 177.5t-167 539.5zM156 688q0 -340 147.5 -499.5t417.5 -159.5t417.5 159.5t147.5 499.5t-147.5 501t-417.5 161t-417.5 -161t-147.5 -501zM537 1716q-23 22 2 45t45 -2l202 -241 q12 -16 -4 -33q-6 -6 -14 -7t-18 9z" />
<glyph unicode="&#xd3;" horiz-adv-x="1441" d="M90 688q0 365 167 542t464 177t464 -177t167 -542q0 -362 -167 -539.5t-464 -177.5t-464 177.5t-167 539.5zM156 688q0 -340 147.5 -499.5t417.5 -159.5t417.5 159.5t147.5 499.5t-147.5 501t-417.5 161t-417.5 -161t-147.5 -501zM641 1518l203 241q20 25 45 2t2 -45 l-213 -229q-10 -10 -18.5 -9t-14.5 7q-16 16 -4 33z" />
<glyph unicode="&#xd4;" horiz-adv-x="1441" d="M90 688q0 365 167 542t464 177t464 -177t167 -542q0 -362 -167 -539.5t-464 -177.5t-464 177.5t-167 539.5zM156 688q0 -340 147.5 -499.5t417.5 -159.5t417.5 159.5t147.5 499.5t-147.5 501t-417.5 161t-417.5 -161t-147.5 -501zM485 1511q0 8 3.5 12.5t7.5 8.5l202 182 q10 10 23 10q12 0 22 -10l203 -182q4 -4 7 -8t3 -13q0 -27 -26 -26q-10 0 -19 8l-190 172l-191 -172q-8 -8 -18 -8q-27 0 -27 26z" />
<glyph unicode="&#xd5;" horiz-adv-x="1441" d="M90 688q0 365 167 542t464 177t464 -177t167 -542q0 -362 -167 -539.5t-464 -177.5t-464 177.5t-167 539.5zM156 688q0 -340 147.5 -499.5t417.5 -159.5t417.5 159.5t147.5 499.5t-147.5 501t-417.5 161t-417.5 -161t-147.5 -501zM430 1520q0 8 4 16q14 33 50 67.5 t102 34.5q43 0 76.5 -13t64.5 -30.5t61.5 -31t67.5 -13.5q49 0 70.5 24.5t34.5 55.5q6 16 24 17q27 0 27 -27q0 -8 -4 -16q-6 -16 -18.5 -35t-31 -34t-44 -26.5t-58.5 -11.5q-43 0 -77 13.5t-64.5 31t-61 30.5t-67.5 13q-47 0 -68.5 -22.5t-36.5 -53.5q-6 -16 -24 -16 q-27 0 -27 27z" />
<glyph unicode="&#xd6;" horiz-adv-x="1441" d="M90 688q0 365 167 542t464 177t464 -177t167 -542q0 -362 -167 -539.5t-464 -177.5t-464 177.5t-167 539.5zM156 688q0 -340 147.5 -499.5t417.5 -159.5t417.5 159.5t147.5 499.5t-147.5 501t-417.5 161t-417.5 -161t-147.5 -501zM512 1565q0 47 45 47t45 -47t-45 -47 t-45 47zM840 1565q0 47 45 47t45 -47t-45 -47t-45 47z" />
<glyph unicode="&#xd7;" horiz-adv-x="696" d="M0 129q0 14 8 23l299 294l-299 295q-8 8 -8 23q0 29 31 29q12 0 20 -9l297 -297l297 297q8 8 21 9q31 0 30 -29q0 -14 -8 -23l-299 -295l299 -294q8 -8 8 -23q0 -29 -30 -29q-12 0 -21 9l-297 297l-297 -297q-8 -8 -20 -9q-31 0 -31 29z" />
<glyph unicode="&#xd8;" horiz-adv-x="1441" d="M90 688q0 365 167 542t464 177q266 0 426 -141l119 151q8 10 20 10q27 0 27 -26q0 -8 -4 -15l-125 -157q82 -90 125 -224.5t43 -316.5q0 -362 -167 -539.5t-464 -177.5q-133 0 -240.5 34t-187.5 106l-119 -150q-4 -4 -8 -7t-12 -3q-27 0 -27 26q0 10 6 17l123 156 q-80 90 -123 223t-43 315zM156 688q0 -166 34.5 -286.5t104.5 -202.5l811 1020q-139 131 -385 131q-270 0 -417.5 -161t-147.5 -501zM334 160q72 -68 168 -99.5t219 -31.5q270 0 417.5 159.5t147.5 499.5q0 166 -36 288t-105 204z" />
<glyph unicode="&#xd9;" horiz-adv-x="1284" d="M184 406v956q0 33 33 33t33 -33v-956q0 -72 16.5 -139.5t60.5 -121t122.5 -85t203.5 -31.5t203 31.5t122 85t60.5 121t16.5 139.5v956q0 33 32 33q33 0 33 -33v-956q0 -82 -20.5 -160t-72.5 -139.5t-142.5 -98.5t-231.5 -37t-232 37t-143.5 98.5t-73 139.5t-20.5 160z M537 1716q-23 22 2 45t45 -2l202 -241q12 -16 -4 -33q-6 -6 -14 -7t-18 9z" />
<glyph unicode="&#xda;" horiz-adv-x="1284" d="M184 406v956q0 33 33 33t33 -33v-956q0 -72 16.5 -139.5t60.5 -121t122.5 -85t203.5 -31.5t203 31.5t122 85t60.5 121t16.5 139.5v956q0 33 32 33q33 0 33 -33v-956q0 -82 -20.5 -160t-72.5 -139.5t-142.5 -98.5t-231.5 -37t-232 37t-143.5 98.5t-73 139.5t-20.5 160z M567 1518l203 241q20 25 45 2t2 -45l-213 -229q-10 -10 -18 -9t-15 7q-16 16 -4 33z" />
<glyph unicode="&#xdb;" horiz-adv-x="1284" d="M184 406v956q0 33 33 33t33 -33v-956q0 -72 16.5 -139.5t60.5 -121t122.5 -85t203.5 -31.5t203 31.5t122 85t60.5 121t16.5 139.5v956q0 33 32 33q33 0 33 -33v-956q0 -82 -20.5 -160t-72.5 -139.5t-142.5 -98.5t-231.5 -37t-232 37t-143.5 98.5t-73 139.5t-20.5 160z M426 1511q0 8 3 12.5t7 8.5l203 182q10 10 23 10q12 0 22 -10l203 -182q4 -4 7 -8t3 -13q0 -27 -27 -26q-10 0 -18 8l-190 172l-191 -172q-8 -8 -18 -8q-27 0 -27 26z" />
<glyph unicode="&#xdc;" horiz-adv-x="1284" d="M184 406v956q0 33 33 33t33 -33v-956q0 -72 16.5 -139.5t60.5 -121t122.5 -85t203.5 -31.5t203 31.5t122 85t60.5 121t16.5 139.5v956q0 33 32 33q33 0 33 -33v-956q0 -82 -20.5 -160t-72.5 -139.5t-142.5 -98.5t-231.5 -37t-232 37t-143.5 98.5t-73 139.5t-20.5 160z M444 1565q0 47 45 47t46 -47q-1 -47 -46 -47t-45 47zM772 1565q0 47 45 47t45 -47t-45 -47t-45 47z" />
<glyph unicode="&#xdd;" horiz-adv-x="1030" d="M35 1360q0 35 33 35q20 0 30 -17l416 -665l414 665q10 16 28 17q35 0 35 -35q0 -12 -6 -21l-438 -688v-635q0 -32 -33 -32t-33 32v635l-440 688q-6 8 -6 21zM438 1518l203 241q20 25 45 2t2 -45l-213 -229q-10 -10 -18 -9t-15 7q-16 16 -4 33z" />
<glyph unicode="&#xde;" horiz-adv-x="1110" d="M184 16v1346q0 33 33 33t33 -33v-260h399q78 0 146.5 -23.5t119 -72t79 -120t28.5 -169.5q0 -96 -28.5 -168t-78 -120t-118 -72.5t-148.5 -24.5h-399v-316q0 -33 -33 -32q-33 0 -33 32zM250 389h377q154 0 241.5 83t87.5 245q0 166 -89 246.5t-240 80.5h-377v-655z" />
<glyph unicode="&#xdf;" horiz-adv-x="1040" d="M143 12v1055q0 66 13.5 127t47.5 107.5t91 74t145 27.5q57 0 106.5 -17.5t86.5 -49t58.5 -75.5t21.5 -98q0 -68 -24.5 -111.5t-61.5 -76.5t-79 -57.5t-79 -50t-61.5 -58.5t-24.5 -80q0 -68 43 -108.5t108.5 -70.5t141.5 -53.5t141.5 -56t108.5 -83t43 -130.5 q0 -66 -25.5 -113.5t-72 -78.5t-108 -46.5t-132.5 -15.5q-129 0 -220.5 45t-127.5 97q-8 10 -9 20q0 12 8.5 19.5t18.5 7.5t18 -8q53 -59 124 -93t188 -34q55 0 105 10t88 34.5t60.5 62.5t22.5 93q0 66 -43 107t-108.5 69.5t-141 52t-141 57.5t-108.5 84t-43 132 q0 57 24.5 94t61 66t78.5 52.5t79 53t61.5 69.5t24.5 99q0 82 -56 134.5t-155 52.5q-70 0 -114.5 -21.5t-71.5 -58.5t-38 -89.5t-11 -113.5v-1055q0 -12 -9.5 -21t-21.5 -9t-21.5 9t-9.5 21z" />
<glyph unicode="&#xe0;" d="M74 258q0 135 101 210t278 75h315v94q0 131 -80 199.5t-221 68.5q-61 0 -106.5 -12t-78 -33.5t-55 -48.5t-41.5 -55q-8 -14 -24 -15q-29 0 -29 29q0 8 6 18q41 66 120 118t208 52q188 0 273 -93t85 -244v-607q0 -29 -28 -28q-29 0 -29 28v121q-51 -82 -142 -121t-196 -39 q-174 0 -265 74t-91 209zM137 258q0 -106 71.5 -167.5t221.5 -61.5q68 0 128 18.5t107.5 54t75 90t27.5 125.5v175h-315q-139 0 -227.5 -57.5t-88.5 -176.5zM350 1300q-23 23 2 46t45 -3l203 -241q12 -16 -4 -33q-6 -6 -14.5 -7t-18.5 9z" />
<glyph unicode="&#xe1;" d="M74 258q0 135 101 210t278 75h315v94q0 131 -80 199.5t-221 68.5q-61 0 -106.5 -12t-78 -33.5t-55 -48.5t-41.5 -55q-8 -14 -24 -15q-29 0 -29 29q0 8 6 18q41 66 120 118t208 52q188 0 273 -93t85 -244v-607q0 -29 -28 -28q-29 0 -29 28v121q-51 -82 -142 -121t-196 -39 q-174 0 -265 74t-91 209zM137 258q0 -106 71.5 -167.5t221.5 -61.5q68 0 128 18.5t107.5 54t75 90t27.5 125.5v175h-315q-139 0 -227.5 -57.5t-88.5 -176.5zM373 1102l202 241q21 26 46 3t2 -46l-213 -229q-10 -10 -18.5 -9t-14.5 7q-16 16 -4 33z" />
<glyph unicode="&#xe2;" d="M74 258q0 135 101 210t278 75h315v94q0 131 -80 199.5t-221 68.5q-61 0 -106.5 -12t-78 -33.5t-55 -48.5t-41.5 -55q-8 -14 -24 -15q-29 0 -29 29q0 8 6 18q41 66 120 118t208 52q188 0 273 -93t85 -244v-607q0 -29 -28 -28q-29 0 -29 28v121q-51 -82 -142 -121t-196 -39 q-174 0 -265 74t-91 209zM137 258q0 -106 71.5 -167.5t221.5 -61.5q68 0 128 18.5t107.5 54t75 90t27.5 125.5v175h-315q-139 0 -227.5 -57.5t-88.5 -176.5zM252 1118q0 8 3 12.5t7 8.5l203 182q10 10 22 10t23 -10l203 -182q4 -4 7 -8.5t3 -12.5q0 -27 -27 -26q-10 0 -18 8 l-191 172l-190 -172q-8 -8 -18 -8q-27 0 -27 26z" />
<glyph unicode="&#xe3;" d="M74 258q0 135 101 210t278 75h315v94q0 131 -80 199.5t-221 68.5q-61 0 -106.5 -12t-78 -33.5t-55 -48.5t-41.5 -55q-8 -14 -24 -15q-29 0 -29 29q0 8 6 18q41 66 120 118t208 52q188 0 273 -93t85 -244v-607q0 -29 -28 -28q-29 0 -29 28v121q-51 -82 -142 -121t-196 -39 q-174 0 -265 74t-91 209zM137 258q0 -106 71.5 -167.5t221.5 -61.5q68 0 128 18.5t107.5 54t75 90t27.5 125.5v175h-315q-139 0 -227.5 -57.5t-88.5 -176.5zM180 1118q0 8 4 17q14 33 50 67.5t102 34.5q43 0 76.5 -13.5t64.5 -30.5t61.5 -30.5t67.5 -13.5q49 0 70.5 24.5 t34.5 55.5q6 16 24 16q27 0 27 -26q0 -8 -4 -17q-6 -16 -18.5 -34.5t-31 -34t-44 -26.5t-58.5 -11q-43 0 -76.5 13t-64.5 30.5t-61.5 31t-67.5 13.5q-47 0 -68.5 -22.5t-36.5 -53.5q-6 -16 -24 -16q-27 0 -27 26z" />
<glyph unicode="&#xe4;" d="M74 258q0 135 101 210t278 75h315v94q0 131 -80 199.5t-221 68.5q-61 0 -106.5 -12t-78 -33.5t-55 -48.5t-41.5 -55q-8 -14 -24 -15q-29 0 -29 29q0 8 6 18q41 66 120 118t208 52q188 0 273 -93t85 -244v-607q0 -29 -28 -28q-29 0 -29 28v121q-51 -82 -142 -121t-196 -39 q-174 0 -265 74t-91 209zM137 258q0 -106 71.5 -167.5t221.5 -61.5q68 0 128 18.5t107.5 54t75 90t27.5 125.5v175h-315q-139 0 -227.5 -57.5t-88.5 -176.5zM274 1161q0 47 45 47t46 -47q-1 -47 -46 -47t-45 47zM602 1161q0 47 45 47t45 -47t-45 -47t-45 47z" />
<glyph unicode="&#xe5;" d="M74 258q0 135 101 210t278 75h315v94q0 131 -80 199.5t-221 68.5q-61 0 -106.5 -12t-78 -33.5t-55 -48.5t-41.5 -55q-8 -14 -24 -15q-29 0 -29 29q0 8 6 18q41 66 120 118t208 52q188 0 273 -93t85 -244v-607q0 -29 -28 -28q-29 0 -29 28v121q-51 -82 -142 -121t-196 -39 q-174 0 -265 74t-91 209zM137 258q0 -106 71.5 -167.5t221.5 -61.5q68 0 128 18.5t107.5 54t75 90t27.5 125.5v175h-315q-139 0 -227.5 -57.5t-88.5 -176.5zM258 1229q0 94 51 147.5t162 53.5t162 -53.5t51 -147.5t-51 -147.5t-162 -53.5t-162 53.5t-51 147.5zM311 1229 q0 -80 37 -118t123 -38t123 38t37 118t-37 117.5t-123 37.5t-123 -37.5t-37 -117.5z" />
<glyph unicode="&#xe6;" horiz-adv-x="1638" d="M70 248q0 135 104.5 206.5t296.5 71.5h297v113q0 131 -80 198.5t-221 67.5q-61 0 -106.5 -12t-78 -33.5t-55 -48.5t-41.5 -55q-8 -14 -24 -15q-29 0 -29 29q0 8 6 18q41 66 120 118t208 52q156 0 238.5 -62t105.5 -171q39 113 136 173t235 60q127 0 203.5 -38.5 t116.5 -96t52.5 -123t12.5 -116.5v-37t-4 -39q-6 -33 -45 -33h-693q0 -223 94.5 -335.5t284.5 -112.5q57 0 101.5 9t78 23.5t60 33t49.5 36.5q8 6 16 6q27 0 27 -26q0 -10 -12 -23q-12 -12 -37 -30.5t-65 -37t-94 -32t-124 -13.5q-150 0 -252 62.5t-143 191.5 q-20 -66 -58 -113.5t-87.5 -78.5t-108.5 -45.5t-125 -14.5q-174 0 -267 69t-93 204zM133 248q0 -106 73.5 -162.5t223.5 -56.5q68 0 128 19.5t107.5 56t75 92t27.5 127.5v151h-315q-70 0 -128.5 -13t-101.5 -41t-66.5 -71t-23.5 -102zM825 526h680v21q0 10 1 19.5t1 17.5 q0 61 -14 119.5t-50 102.5t-99.5 71.5t-161.5 27.5q-168 0 -262.5 -96t-94.5 -283z" />
<glyph unicode="&#xe7;" horiz-adv-x="901" d="M80 467q0 252 111.5 371.5t308.5 119.5q76 0 130 -17t90 -40.5t55.5 -46.5t27.5 -33q6 -10 6 -18q0 -27 -27 -27q-14 0 -22 12q-12 14 -31.5 35t-50.5 39.5t-74 30.5t-104 12q-174 0 -264.5 -104.5t-90.5 -333.5q0 -231 90.5 -335.5t264.5 -104.5q53 0 95 10t74.5 24.5 t57.5 32t45 33.5q8 6 16 6q27 0 27 -27q0 -12 -12 -22q-16 -12 -42 -30.5t-62.5 -37t-87 -31t-111.5 -12.5h-18.5t-16.5 2l-8 -102l16 4q20 4 43 4q78 0 125 -42t47 -124q0 -76 -48 -125t-140 -49q-43 0 -76 11.5t-49 25.5q-6 6 -6 14q0 20 18 21q6 0 16 -6q16 -10 39 -19.5 t58 -9.5q139 0 139 137q0 74 -38 101.5t-85 27.5q-31 0 -48 -6t-28 -6q-23 0 -22 23l6 125q-164 20 -254 139t-90 348z" />
<glyph unicode="&#xe8;" horiz-adv-x="954" d="M82 467q0 240 109.5 365.5t308.5 125.5q127 0 203.5 -42t116.5 -102t52.5 -128t12.5 -119v-36.5t-4 -38.5q-6 -33 -45 -33h-691q0 -223 98.5 -327.5t278.5 -104.5q57 0 101.5 9t78 23.5t60 33t49.5 36.5q8 6 16 6q27 0 27 -26q0 -10 -12 -23q-12 -12 -37 -30.5t-65 -37 t-94 -32t-124 -13.5q-102 0 -184 29t-138.5 88.5t-87 153.5t-30.5 223zM145 510h678v22q0 10 1 19.5t1 15.5q0 61 -14 122t-50 109t-99.5 77.5t-161.5 29.5q-174 0 -261 -105.5t-94 -289.5zM356 1300q-23 23 2 46t45 -3l203 -241q12 -16 -4 -33q-6 -6 -14 -7t-19 9z" />
<glyph unicode="&#xe9;" horiz-adv-x="954" d="M82 467q0 240 109.5 365.5t308.5 125.5q127 0 203.5 -42t116.5 -102t52.5 -128t12.5 -119v-36.5t-4 -38.5q-6 -33 -45 -33h-691q0 -223 98.5 -327.5t278.5 -104.5q57 0 101.5 9t78 23.5t60 33t49.5 36.5q8 6 16 6q27 0 27 -26q0 -10 -12 -23q-12 -12 -37 -30.5t-65 -37 t-94 -32t-124 -13.5q-102 0 -184 29t-138.5 88.5t-87 153.5t-30.5 223zM145 510h678v22q0 10 1 19.5t1 15.5q0 61 -14 122t-50 109t-99.5 77.5t-161.5 29.5q-174 0 -261 -105.5t-94 -289.5zM408 1102l202 241q20 26 45 3t2 -46l-213 -229q-10 -10 -18 -9t-14 7q-16 16 -4 33 z" />
<glyph unicode="&#xea;" horiz-adv-x="954" d="M82 467q0 240 109.5 365.5t308.5 125.5q127 0 203.5 -42t116.5 -102t52.5 -128t12.5 -119v-36.5t-4 -38.5q-6 -33 -45 -33h-691q0 -223 98.5 -327.5t278.5 -104.5q57 0 101.5 9t78 23.5t60 33t49.5 36.5q8 6 16 6q27 0 27 -26q0 -10 -12 -23q-12 -12 -37 -30.5t-65 -37 t-94 -32t-124 -13.5q-102 0 -184 29t-138.5 88.5t-87 153.5t-30.5 223zM145 510h678v22q0 10 1 19.5t1 15.5q0 61 -14 122t-50 109t-99.5 77.5t-161.5 29.5q-174 0 -261 -105.5t-94 -289.5zM272 1118q0 8 3.5 12.5t7.5 8.5l202 182q10 10 23 10q12 0 22 -10l203 -182 q4 -4 7 -8.5t3 -12.5q0 -27 -26 -26q-10 0 -19 8l-190 172l-191 -172q-8 -8 -18 -8q-27 0 -27 26z" />
<glyph unicode="&#xeb;" horiz-adv-x="954" d="M82 467q0 240 109.5 365.5t308.5 125.5q127 0 203.5 -42t116.5 -102t52.5 -128t12.5 -119v-36.5t-4 -38.5q-6 -33 -45 -33h-691q0 -223 98.5 -327.5t278.5 -104.5q57 0 101.5 9t78 23.5t60 33t49.5 36.5q8 6 16 6q27 0 27 -26q0 -10 -12 -23q-12 -12 -37 -30.5t-65 -37 t-94 -32t-124 -13.5q-102 0 -184 29t-138.5 88.5t-87 153.5t-30.5 223zM145 510h678v22q0 10 1 19.5t1 15.5q0 61 -14 122t-50 109t-99.5 77.5t-161.5 29.5q-174 0 -261 -105.5t-94 -289.5zM305 1161q0 47 45 47t45 -47t-45 -47t-45 47zM633 1161q0 47 45 47t45 -47t-45 -47 t-45 47z" />
<glyph unicode="&#xec;" horiz-adv-x="358" d="M12 1300q-23 23 2 46t45 -3l203 -241q12 -16 -4 -33q-6 -6 -14 -7t-19 9zM154 14v901q0 12 9 21.5t21 9.5t21.5 -9t9.5 -22v-901q0 -12 -9 -21t-22 -9q-12 0 -21 9t-9 21z" />
<glyph unicode="&#xed;" horiz-adv-x="358" d="M115 1102l202 241q20 26 45 3t3 -46l-213 -229q-10 -10 -18.5 -9t-14.5 7q-16 16 -4 33zM154 14v901q0 12 9 21.5t21 9.5t21.5 -9t9.5 -22v-901q0 -12 -9 -21t-22 -9q-12 0 -21 9t-9 21z" />
<glyph unicode="&#xee;" horiz-adv-x="358" d="M-55 1118q0 8 3 12.5t7 8.5l203 182q10 10 22 10t23 -10l203 -182q4 -4 7 -8.5t3 -12.5q0 -27 -27 -26q-10 0 -18 8l-191 172l-190 -172q-8 -8 -19 -8q-27 0 -26 26zM154 14v901q0 12 9 21.5t21 9.5t21.5 -9t9.5 -22v-901q0 -12 -9 -21t-22 -9q-12 0 -21 9t-9 21z" />
<glyph unicode="&#xef;" horiz-adv-x="358" d="M-25 1161q0 47 45 47t46 -47q-1 -47 -46 -47t-45 47zM154 14v901q0 12 9 21.5t21 9.5t21.5 -9t9.5 -22v-901q0 -12 -9 -21t-22 -9q-12 0 -21 9t-9 21zM303 1161q0 47 45 47t45 -47t-45 -47t-45 47z" />
<glyph unicode="&#xf0;" horiz-adv-x="999" d="M82 467q0 252 110.5 371.5t307.5 119.5q119 0 202.5 -44t137.5 -123q-31 125 -84.5 233.5t-126.5 185.5l-160 -102q-8 -4 -10 -4h-4q-25 0 -25 24q0 14 12 23l152 96q-47 49 -105.5 92t-117.5 74q-14 8 -15 23q0 23 23 22q8 0 16 -4q66 -35 128.5 -81t111.5 -97l127 82 q6 4 14 4q10 0 17.5 -7t7.5 -18q0 -12 -10 -20l-121 -78q59 -72 105 -148.5t78 -169t48.5 -204t16.5 -250.5q0 -252 -111 -373t-307 -121q-197 0 -307.5 121t-110.5 373zM143 467q0 -231 91.5 -335.5t265.5 -104.5t265 104.5t91 335.5q0 229 -91 333.5t-265 104.5 t-265.5 -104.5t-91.5 -333.5z" />
<glyph unicode="&#xf1;" horiz-adv-x="1015" d="M152 14v901q0 12 9 21.5t21 9.5t21.5 -9t9.5 -22v-153q12 31 36.5 65.5t63.5 63.5t94.5 48t127.5 19q111 0 181 -29.5t112 -80.5t57.5 -116.5t15.5 -135.5v-582q0 -12 -9 -21t-22 -9q-12 0 -21 9t-9 21v582q0 61 -13.5 117.5t-47.5 99.5t-93 67.5t-154 24.5 q-84 0 -144 -28.5t-99 -75.5t-57.5 -106.5t-18.5 -119.5v-561q0 -12 -9.5 -21t-21.5 -9t-21 9t-9 21zM217 1118q0 8 4 17q14 33 50 67.5t102 34.5q43 0 76.5 -13.5t64.5 -30.5t61.5 -30.5t67.5 -13.5q49 0 70.5 24.5t34.5 55.5q6 16 24 16q27 0 27 -26q0 -8 -4 -17 q-6 -16 -18.5 -34.5t-31 -34t-44 -26.5t-58.5 -11q-43 0 -77 13t-64.5 30.5t-61 31t-67.5 13.5q-47 0 -68.5 -22.5t-36.5 -53.5q-6 -16 -24 -16q-27 0 -27 26z" />
<glyph unicode="&#xf2;" horiz-adv-x="999" d="M80 467q0 252 111.5 371.5t308.5 119.5t308.5 -119.5t111.5 -371.5t-112 -373t-308 -121q-197 0 -308.5 121t-111.5 373zM145 467q0 -229 90.5 -334.5t264.5 -105.5t264 105.5t90 334.5q0 227 -90 332.5t-264 105.5t-264.5 -105.5t-90.5 -332.5zM377 1300q-23 23 2 46 t45 -3l203 -241q12 -16 -4 -33q-6 -6 -14.5 -7t-18.5 9z" />
<glyph unicode="&#xf3;" horiz-adv-x="999" d="M80 467q0 252 111.5 371.5t308.5 119.5t308.5 -119.5t111.5 -371.5t-112 -373t-308 -121q-197 0 -308.5 121t-111.5 373zM145 467q0 -229 90.5 -334.5t264.5 -105.5t264 105.5t90 334.5q0 227 -90 332.5t-264 105.5t-264.5 -105.5t-90.5 -332.5zM420 1102l203 241 q20 26 45 3t2 -46l-213 -229q-10 -10 -18.5 -9t-14.5 7q-16 16 -4 33z" />
<glyph unicode="&#xf4;" horiz-adv-x="999" d="M80 467q0 252 111.5 371.5t308.5 119.5t308.5 -119.5t111.5 -371.5t-112 -373t-308 -121q-197 0 -308.5 121t-111.5 373zM145 467q0 -229 90.5 -334.5t264.5 -105.5t264 105.5t90 334.5q0 227 -90 332.5t-264 105.5t-264.5 -105.5t-90.5 -332.5zM268 1118q0 8 3 12.5 t8 8.5l202 182q10 10 23 10q12 0 22 -10l203 -182q4 -4 7 -8.5t3 -12.5q0 -27 -26 -26q-10 0 -19 8l-190 172l-191 -172q-8 -8 -18 -8q-27 0 -27 26z" />
<glyph unicode="&#xf5;" horiz-adv-x="999" d="M80 467q0 252 111.5 371.5t308.5 119.5t308.5 -119.5t111.5 -371.5t-112 -373t-308 -121q-197 0 -308.5 121t-111.5 373zM145 467q0 -229 90.5 -334.5t264.5 -105.5t264 105.5t90 334.5q0 227 -90 332.5t-264 105.5t-264.5 -105.5t-90.5 -332.5zM209 1118q0 8 4 17 q14 33 50 67.5t102 34.5q43 0 76.5 -13.5t64.5 -30.5t61.5 -30.5t67.5 -13.5q49 0 70.5 24.5t33.5 55.5q6 16 25 16q27 0 27 -26q0 -8 -5 -17q-6 -16 -18 -34.5t-30.5 -34t-44 -26.5t-58.5 -11q-43 0 -77 13t-64.5 30.5t-61.5 31t-67 13.5q-47 0 -69 -22.5t-36 -53.5 q-6 -16 -24 -16q-27 0 -27 26z" />
<glyph unicode="&#xf6;" horiz-adv-x="999" d="M80 467q0 252 111.5 371.5t308.5 119.5t308.5 -119.5t111.5 -371.5t-112 -373t-308 -121q-197 0 -308.5 121t-111.5 373zM145 467q0 -229 90.5 -334.5t264.5 -105.5t264 105.5t90 334.5q0 227 -90 332.5t-264 105.5t-264.5 -105.5t-90.5 -332.5zM291 1161q0 47 45 47 t45 -47t-45 -47t-45 47zM618 1161q0 47 46 47q45 0 45 -47t-45 -47t-46 47z" />
<glyph unicode="&#xf7;" horiz-adv-x="929" d="M0 446q0 27 27 27h876q27 0 27 -27t-27 -26h-876q-27 0 -27 26zM418 197q0 18 14 32.5t33 14.5q20 0 33.5 -14.5t13.5 -32.5q0 -20 -13.5 -35t-33.5 -15q-18 0 -32.5 14.5t-14.5 35.5zM418 696q0 20 14 33.5t33 13.5q20 0 33.5 -13.5t13.5 -33.5q0 -18 -13.5 -32.5 t-33.5 -14.5q-18 0 -32.5 14.5t-14.5 32.5z" />
<glyph unicode="&#xf8;" horiz-adv-x="1019" d="M55 14q0 12 8 21l103 108q-74 117 -74 324q0 252 110.5 371.5t307.5 119.5q205 0 311 -124l97 100q6 6 10 7t8 1q27 0 27 -27q0 -10 -9 -18l-102 -106q76 -123 76 -324q0 -252 -110.5 -373t-307.5 -121q-207 0 -313 127l-95 -100q-10 -10 -22 -10t-18.5 7t-6.5 17z M156 467q0 -178 51 -281l573 605q-88 115 -270 114q-174 0 -264 -104.5t-90 -333.5zM236 141q47 -59 114.5 -86.5t159.5 -27.5q174 0 264 104.5t90 335.5q0 180 -53 278z" />
<glyph unicode="&#xf9;" horiz-adv-x="995" d="M123 338v577q0 12 9.5 21.5t21.5 9.5t21 -9t9 -22v-577q0 -63 12.5 -119.5t47.5 -99.5t95 -67.5t159 -24.5q98 0 158.5 24.5t95 67.5t47 99t12.5 120v577q0 12 9 21.5t22 9.5q12 0 21 -9t9 -22v-577q0 -72 -15 -137.5t-56 -116.5t-114 -81t-189 -30q-117 0 -189.5 30 t-113.5 81t-56.5 116.5t-15.5 137.5zM350 1300q-23 23 2 46t45 -3l203 -241q12 -16 -4 -33q-6 -6 -14.5 -7t-18.5 9z" />
<glyph unicode="&#xfa;" horiz-adv-x="995" d="M123 338v577q0 12 9.5 21.5t21.5 9.5t21 -9t9 -22v-577q0 -63 12.5 -119.5t47.5 -99.5t95 -67.5t159 -24.5q98 0 158.5 24.5t95 67.5t47 99t12.5 120v577q0 12 9 21.5t22 9.5q12 0 21 -9t9 -22v-577q0 -72 -15 -137.5t-56 -116.5t-114 -81t-189 -30q-117 0 -189.5 30 t-113.5 81t-56.5 116.5t-15.5 137.5zM393 1102l203 241q20 26 45 3t2 -46l-213 -229q-10 -10 -18.5 -9t-14.5 7q-16 16 -4 33z" />
<glyph unicode="&#xfb;" horiz-adv-x="995" d="M123 338v577q0 12 9.5 21.5t21.5 9.5t21 -9t9 -22v-577q0 -63 12.5 -119.5t47.5 -99.5t95 -67.5t159 -24.5q98 0 158.5 24.5t95 67.5t47 99t12.5 120v577q0 12 9 21.5t22 9.5q12 0 21 -9t9 -22v-577q0 -72 -15 -137.5t-56 -116.5t-114 -81t-189 -30q-117 0 -189.5 30 t-113.5 81t-56.5 116.5t-15.5 137.5zM270 1118q0 8 3 12.5t8 8.5l202 182q10 10 23 10q12 0 22 -10l203 -182q4 -4 7 -8.5t3 -12.5q0 -27 -26 -26q-10 0 -19 8l-190 172l-191 -172q-8 -8 -18 -8q-27 0 -27 26z" />
<glyph unicode="&#xfc;" horiz-adv-x="995" d="M123 338v577q0 12 9.5 21.5t21.5 9.5t21 -9t9 -22v-577q0 -63 12.5 -119.5t47.5 -99.5t95 -67.5t159 -24.5q98 0 158.5 24.5t95 67.5t47 99t12.5 120v577q0 12 9 21.5t22 9.5q12 0 21 -9t9 -22v-577q0 -72 -15 -137.5t-56 -116.5t-114 -81t-189 -30q-117 0 -189.5 30 t-113.5 81t-56.5 116.5t-15.5 137.5zM289 1161q0 47 45 47t45 -47t-45 -47t-45 47zM616 1161q0 47 46 47q45 0 45 -47t-45 -47t-46 47z" />
<glyph unicode="&#xfd;" horiz-adv-x="876" d="M4 -385q0 27 27 27q84 0 139 21.5t95 66.5t72 113.5t71 164.5l-367 891q-4 8 -4 16q0 12 9 21.5t22 9.5q14 0 20 -8t8 -12l342 -848l342 848q2 4 8.5 12t20.5 8q12 0 21.5 -9t9.5 -22q0 -8 -4 -16l-433 -1042q-31 -76 -66.5 -127.5t-79.5 -83t-99.5 -45t-126.5 -13.5 q-27 0 -27 27zM358 1102l203 241q20 26 45 3t2 -46l-213 -229q-10 -10 -18 -9t-15 7q-16 16 -4 33z" />
<glyph unicode="&#xfe;" horiz-adv-x="1042" d="M143 -381v1808q0 12 9.5 21.5t21.5 9.5t21.5 -9t9.5 -22v-671q41 98 125 150t213 52q197 0 307.5 -119.5t110.5 -371.5t-111 -373t-307 -121q-102 0 -167 31t-104 68q-45 43 -67 98v-551q0 -12 -9.5 -21.5t-21.5 -9.5t-21.5 9.5t-9.5 21.5zM201 467q0 -119 25.5 -202 t71.5 -136t108.5 -77.5t136.5 -24.5q174 0 265 104.5t91 335.5q0 229 -94 333.5t-268 104.5q-156 0 -246 -104.5t-90 -333.5z" />
<glyph unicode="&#xff;" horiz-adv-x="876" d="M4 -385q0 27 27 27q84 0 139 21.5t95 66.5t72 113.5t71 164.5l-367 891q-4 8 -4 16q0 12 9 21.5t22 9.5q14 0 20 -8t8 -12l342 -848l342 848q2 4 8.5 12t20.5 8q12 0 21.5 -9t9.5 -22q0 -8 -4 -16l-433 -1042q-31 -76 -66.5 -127.5t-79.5 -83t-99.5 -45t-126.5 -13.5 q-27 0 -27 27zM229 1161q0 47 45 47t45 -47t-45 -47t-45 47zM557 1161q0 47 45 47t45 -47t-45 -47t-45 47z" />
<glyph unicode="&#x152;" horiz-adv-x="1929" d="M90 688q0 365 167 542t464 177q197 0 344 -82v21q0 33 33 32h694q29 0 29 -28q0 -29 -29 -29h-662v-598h517q29 0 28 -29q0 -29 -28 -28h-517v-609h687q29 0 28 -28q0 -29 -28 -29h-719q-33 0 -33 33v20q-147 -82 -344 -82q-297 0 -464 177.5t-167 539.5zM156 688 q0 -340 147.5 -499.5t417.5 -159.5q211 0 344 94v1132q-133 94 -344 95q-270 0 -417.5 -161t-147.5 -501z" />
<glyph unicode="&#x153;" horiz-adv-x="1726" d="M82 467q0 252 110.5 371.5t307.5 119.5q147 0 246.5 -66.5t142.5 -205.5q41 133 138 202.5t245 69.5q127 0 203.5 -42t116.5 -102t52.5 -128t12.5 -119v-36.5t-4 -38.5q-6 -33 -45 -33h-690q0 -227 100 -329.5t276 -102.5q57 0 101.5 9t78 23.5t60.5 33t49 36.5q8 6 16 6 q27 0 27 -26q0 -10 -12 -23q-12 -12 -37 -30.5t-64.5 -37t-94 -32t-124.5 -13.5q-154 0 -258 64.5t-149 206.5q-41 -139 -140.5 -205t-246.5 -66q-197 0 -307.5 121t-110.5 373zM143 467q0 -231 91.5 -335.5t265.5 -104.5t265 104.5t91 335.5q0 229 -91 333.5t-265 104.5 t-265.5 -104.5t-91.5 -333.5zM918 510h679v20q0 10 1 19.5t1 17.5q0 61 -14 122t-51 109t-100.5 77.5t-161.5 29.5q-174 0 -262 -104.5t-92 -290.5z" />
<glyph unicode="&#x178;" horiz-adv-x="1028" d="M35 1360q0 35 33 35q20 0 30 -17l416 -665l414 665q10 16 28 17q35 0 35 -35q0 -12 -6 -21l-438 -688v-635q0 -32 -33 -32t-33 32v635l-440 688q-6 8 -6 21zM303 1565q0 47 45 47t45 -47t-45 -47t-45 47zM631 1565q0 47 45 47t45 -47t-45 -47t-45 47z" />
<glyph unicode="&#x2c6;" horiz-adv-x="684" d="M106 1118q0 8 3.5 12.5t7.5 8.5l202 182q10 10 23 10q12 0 23 -10l202 -182q4 -4 7.5 -8.5t3.5 -12.5q0 -27 -27 -26q-10 0 -19 8l-190 172l-190 -172q-8 -8 -19 -8q-27 0 -27 26z" />
<glyph unicode="&#x2dc;" horiz-adv-x="774" d="M96 1118q0 8 4 17q14 33 50 67.5t102 34.5q43 0 76.5 -13.5t64.5 -30.5t61.5 -30.5t67.5 -13.5q49 0 70.5 24.5t34.5 55.5q6 16 24 16q27 0 27 -26q0 -8 -4 -17q-6 -16 -18.5 -34.5t-31 -34t-44 -26.5t-58.5 -11q-43 0 -76.5 13t-64.5 30.5t-61.5 31t-67.5 13.5 q-47 0 -68.5 -22.5t-36.5 -53.5q-6 -16 -24 -16q-27 0 -27 26z" />
<glyph unicode="&#x2000;" horiz-adv-x="920" />
<glyph unicode="&#x2001;" horiz-adv-x="1841" />
<glyph unicode="&#x2002;" horiz-adv-x="920" />
<glyph unicode="&#x2003;" horiz-adv-x="1841" />
<glyph unicode="&#x2004;" horiz-adv-x="613" />
<glyph unicode="&#x2005;" horiz-adv-x="460" />
<glyph unicode="&#x2006;" horiz-adv-x="306" />
<glyph unicode="&#x2007;" horiz-adv-x="306" />
<glyph unicode="&#x2008;" horiz-adv-x="230" />
<glyph unicode="&#x2009;" horiz-adv-x="368" />
<glyph unicode="&#x200a;" horiz-adv-x="102" />
<glyph unicode="&#x2010;" horiz-adv-x="577" d="M74 516q0 27 26 27h375q27 0 27 -27t-27 -27h-375q-27 0 -26 27z" />
<glyph unicode="&#x2011;" horiz-adv-x="577" d="M74 516q0 27 26 27h375q27 0 27 -27t-27 -27h-375q-27 0 -26 27z" />
<glyph unicode="&#x2012;" horiz-adv-x="577" d="M74 516q0 27 26 27h375q27 0 27 -27t-27 -27h-375q-27 0 -26 27z" />
<glyph unicode="&#x2013;" horiz-adv-x="1196" d="M211 578q0 27 27 26h720q27 1 27 -26t-27 -27h-720q-27 0 -27 27z" />
<glyph unicode="&#x2014;" horiz-adv-x="1880" d="M211 578q0 27 27 26h1404q27 1 27 -26t-27 -27h-1404q-27 0 -27 27z" />
<glyph unicode="&#x2018;" horiz-adv-x="280" d="M92 1161q0 66 20.5 127.5t47.5 95.5q8 10 20 11q18 0 19 -19q0 -6 -4 -14q-23 -41 -32 -70.5t-9 -52.5q0 -41 17 -66.5t17 -52.5q0 -18 -11 -31.5t-34 -13.5q-27 0 -39 18.5t-12 67.5z" />
<glyph unicode="&#x2019;" horiz-adv-x="280" d="M82 1094q0 6 4 14q23 41 32 70.5t9 52.5q0 20 -5 36.5t-12.5 30t-12.5 25.5t-5 27q0 18 11.5 31.5t33.5 13.5q27 0 39 -18.5t12 -67.5q0 -66 -20.5 -127.5t-46.5 -96.5q-8 -10 -21 -10q-18 0 -18 19z" />
<glyph unicode="&#x201a;" horiz-adv-x="288" d="M86 -221q0 6 4 14q23 41 32 71t9 52q0 20 -5 36.5t-12.5 30t-12.5 25.5t-5 27q0 18 11.5 31.5t33.5 13.5q27 0 39.5 -18.5t12.5 -67.5q0 -66 -20.5 -127.5t-47.5 -95.5q-8 -10 -21 -11q-18 0 -18 19z" />
<glyph unicode="&#x201c;" horiz-adv-x="479" d="M92 1161q0 66 20.5 127.5t47.5 95.5q8 10 20 11q18 0 19 -19q0 -6 -4 -14q-23 -41 -32 -70.5t-9 -52.5q0 -41 17 -66.5t17 -52.5q0 -18 -11 -31.5t-34 -13.5q-27 0 -39 18.5t-12 67.5zM291 1161q0 66 20.5 127.5t46.5 95.5q8 10 21 11q18 0 18 -19q0 -6 -4 -14 q-23 -41 -32 -70.5t-9 -52.5q0 -41 17.5 -66.5t17.5 -52.5q0 -18 -11 -31.5t-34 -13.5q-27 0 -39 18.5t-12 67.5z" />
<glyph unicode="&#x201d;" horiz-adv-x="479" d="M82 1094q0 6 4 14q23 41 32 70.5t9 52.5q0 20 -5 36.5t-12.5 30t-12.5 25.5t-5 27q0 18 11.5 31.5t33.5 13.5q27 0 39 -18.5t12 -67.5q0 -66 -20.5 -127.5t-46.5 -96.5q-8 -10 -21 -10q-18 0 -18 19zM281 1094q0 6 4 14q23 41 32 70.5t9 52.5q0 20 -5.5 36.5t-12.5 30 t-12 25.5t-5 27q0 18 11 31.5t34 13.5q27 0 39 -18.5t12 -67.5q0 -66 -20.5 -127.5t-47.5 -96.5q-8 -10 -20 -10q-18 0 -18 19z" />
<glyph unicode="&#x201e;" horiz-adv-x="487" d="M86 -221q0 6 4 14q23 41 32 71t9 52q0 20 -5 36.5t-12.5 30t-12.5 25.5t-5 27q0 18 11.5 31.5t33.5 13.5q27 0 39.5 -18.5t12.5 -67.5q0 -66 -20.5 -127.5t-47.5 -95.5q-8 -10 -21 -11q-18 0 -18 19zM285 -221q0 6 4 14q23 41 32 71t9 52q0 20 -5.5 36.5t-12.5 30 t-12 25.5t-5 27q0 18 11 31.5t34 13.5q27 0 39 -18.5t12 -67.5q0 -66 -20.5 -127.5t-46.5 -95.5q-8 -10 -21 -11q-18 0 -18 19z" />
<glyph unicode="&#x2022;" horiz-adv-x="856" d="M162 571q0 145 68.5 212t197.5 67t197.5 -66.5t68.5 -212.5q0 -135 -68.5 -200.5t-197.5 -65.5t-197.5 65.5t-68.5 200.5z" />
<glyph unicode="&#x2026;" horiz-adv-x="1501" d="M96 31q0 49 47 49t47 -49q0 -47 -47 -47t-47 47zM702 31q0 49 48 49q47 0 47 -49q0 -47 -47 -47t-48 47zM1309 31q0 49 47 49t47 -49q0 -47 -47 -47t-47 47z" />
<glyph unicode="&#x202f;" horiz-adv-x="368" />
<glyph unicode="&#x2039;" horiz-adv-x="663" d="M123 434q0 8 6 15l360 423q8 8 21 9q29 0 29 -29q0 -12 -7 -18l-346 -400l346 -399q6 -6 7 -19q0 -29 -29 -28q-12 0 -21 8l-360 424q-6 6 -6 14z" />
<glyph unicode="&#x203a;" horiz-adv-x="661" d="M123 16q0 12 6 19l346 399l-346 400q-6 6 -6 18q0 29 29 29q12 0 20 -9l360 -423q6 -6 7 -15q0 -8 -7 -14l-360 -424q-8 -8 -20 -8q-29 0 -29 28z" />
<glyph unicode="&#x205f;" horiz-adv-x="460" />
<glyph unicode="&#x20ac;" horiz-adv-x="1273" d="M-8 561q0 27 26 27h76q-2 23 -3 48.5t-1 51.5v43.5t2 40.5h-74q-27 0 -26 27q0 27 26 26h78q31 295 194 438.5t431 143.5q147 0 266 -57.5t189 -155.5q8 -12 8 -23q0 -29 -29 -28q-14 0 -25 12q-61 84 -167.5 139.5t-241.5 55.5q-242 0 -386.5 -127t-172.5 -398h428 q27 0 26 -26q0 -27 -26 -27h-432q-2 -20 -2 -40.5v-43.5v-52.5t2 -47.5h432q27 0 26 -27q0 -27 -26 -26h-426q14 -137 58 -233.5t115 -157t167 -88t217 -27.5q117 0 227.5 46t181.5 144q10 12 25 12q29 0 29 -28q0 -10 -6 -19q-33 -49 -82 -89t-108.5 -67.5t-127 -42 t-139.5 -14.5q-264 0 -427 133.5t-196 430.5h-80q-27 0 -26 26z" />
<glyph unicode="&#x2122;" horiz-adv-x="817" d="M43 1315q0 20 20 20h269q20 0 20 -20t-20 -21h-113v-315q0 -23 -22 -23q-23 0 -23 23v315h-111q-20 0 -20 21zM414 977v342q0 23 22 22q14 0 23 -16l112 -229l113 229q8 16 23 16q23 0 22 -22v-342q0 -20 -20 -21q-20 0 -21 21v270l-94 -190q-8 -16 -23 -17q-14 0 -22 17 l-94 190v-270q0 -20 -21 -21q-20 0 -20 21z" />
<glyph unicode="&#x25fc;" horiz-adv-x="942" d="M0 0v942h942v-942h-942z" />
<glyph unicode="&#xfb01;" horiz-adv-x="909" d="M51 903q0 27 27 27h117v129q0 66 19 128t59 110.5t101.5 77t147.5 28.5q66 0 121 -13.5t90 -29.5q20 -10 21 -27q0 -27 -25 -26q-10 0 -27 8q-43 18 -83.5 26.5t-100.5 8.5q-70 0 -119 -22.5t-80.5 -61.5t-47 -92.5t-15.5 -114.5v-129h479q12 0 21.5 -9.5t9.5 -21.5v-885 q0 -12 -9 -21t-22 -9q-12 0 -21 9t-9 21v863h-449v-863q0 -12 -9 -21t-22 -9q-12 0 -21 9t-9 21v863h-117q-27 0 -27 26z" />
<glyph unicode="&#xfb02;" horiz-adv-x="960" d="M51 903q0 27 27 27h117v129q0 66 18 128t58 110.5t100.5 77t146.5 28.5q72 0 131.5 -18.5t100.5 -41.5q16 -10 16 -24v-1114q0 -90 31.5 -129t97.5 -39q27 0 27 -27t-27 -26q-92 0 -141 55t-49 166v672h-449v-863q0 -12 -9 -21t-22 -9q-12 0 -21 9t-9 21v863h-117 q-27 0 -27 26zM256 930h449v377q-35 16 -80 29.5t-111 13.5q-70 0 -119 -22.5t-79.5 -61.5t-45 -92.5t-14.5 -114.5v-129z" />
<glyph unicode="&#xfb03;" horiz-adv-x="1441" d="M51 903q0 27 27 27h117v129q0 68 19 130t61 109.5t108 76t156 28.5q27 0 26 -27q0 -27 -26 -26q-76 0 -130.5 -21.5t-88 -60.5t-49 -92.5t-15.5 -116.5v-129h471v129q0 66 19.5 128t59.5 110.5t101.5 77t147.5 28.5q66 0 121 -13.5t90 -29.5q20 -10 20 -27q0 -27 -24 -26 q-10 0 -27 8q-43 18 -84 26.5t-100 8.5q-70 0 -119 -22.5t-81 -61.5t-47.5 -92.5t-15.5 -114.5v-129h480q12 0 21 -9.5t9 -21.5v-885q0 -12 -9 -21t-21 -9t-21.5 9t-9.5 21v863h-449v-863q0 -12 -9 -21t-21 -9t-21.5 9t-9.5 21v863h-471v-863q0 -12 -9 -21t-22 -9 q-12 0 -21 9t-9 21v863h-117q-27 0 -27 26z" />
<glyph unicode="&#xfb04;" horiz-adv-x="1492" d="M51 903q0 27 27 27h117v129q0 68 19 130t61 109.5t108 76t156 28.5q27 0 26 -27q0 -27 -26 -26q-76 0 -130.5 -21.5t-88 -60.5t-49 -92.5t-15.5 -116.5v-129h471v129q0 66 18.5 128t58.5 110.5t100.5 77t146.5 28.5q72 0 131 -18.5t100 -41.5q16 -10 16 -24v-1114 q0 -90 32 -129t97 -39q27 0 27 -27t-27 -26q-92 0 -141 55t-49 166v672h-449v-863q0 -12 -9 -21t-21 -9t-21.5 9t-9.5 21v863h-471v-863q0 -12 -9 -21t-22 -9q-12 0 -21 9t-9 21v863h-117q-27 0 -27 26zM788 930h449v377q-35 16 -80 29.5t-110 13.5q-70 0 -119 -22.5 t-80 -61.5t-45.5 -92.5t-14.5 -114.5v-129z" />
</font>
</defs>
</svg>
